[ create a new paste ] login | about

Link: http://codepad.org/BQSb2twC    [ raw code | fork ]

Plain Text, pasted on Jul 25:
foobar2000 1.3.17 / Dynamic Range Meter 1.1.1
log date: 2018-07-25 09:36:54

--------------------------------------------------------------------------------
Analyzed: Dean Martin / This Time I'm Swingin'
--------------------------------------------------------------------------------

DR         Peak         RMS     Duration Track
--------------------------------------------------------------------------------
DR12      -1.86 dB   -17.83 dB      2:26 01-I Can't Believe That You're In Love With Me
DR13      -1.78 dB   -18.09 dB      2:33 02-True Love
DR12      -1.22 dB   -16.20 dB      2:14 03-You're Nobody 'Til Somebody Loves You
DR12      -1.08 dB   -15.42 dB      3:42 04-On The Street Where You Live
DR12      -0.68 dB   -16.20 dB      3:15 05-Imagination
DR13      -0.41 dB   -17.14 dB      3:08 06-Until The Real Thing Comes Along
DR12      -1.02 dB   -16.05 dB      2:24 07-Please Don't Talk About Me When I'm Gone
DR12      -2.11 dB   -16.87 dB      2:44 08-I've Grown Accustomed To Her Face
DR12      -0.98 dB   -15.34 dB      2:22 09-Someday
DR12      -2.12 dB   -18.43 dB      2:10 10-Mean To Me
DR13      -1.67 dB   -17.51 dB      2:31 11-Heaven Can Wait
DR12      -1.68 dB   -17.36 dB      2:19 12-Just In Time
DR11      -0.81 dB   -16.08 dB      2:23 13-Ain't That A Kick In The Head
--------------------------------------------------------------------------------

Number of tracks:  13
Official DR value: DR12

Samplerate:        192000 Hz
Channels:          2
Bits per sample:   24
Bitrate:           6781 kbps
Codec:             FLAC
================================================================================




Create a new paste based on this one


Comments: