[ create a new paste ] login | about

Link: http://codepad.org/BStuRmdU    [ raw code | fork ]

Plain Text, pasted on Aug 13:
foobar2000 1.4.4 / Dynamic Range Meter 1.1.1
log date: 2019-08-13 10:39:55

--------------------------------------------------------------------------------
Analyzed: The Who / A Quick One
--------------------------------------------------------------------------------

DR         Peak         RMS     Duration Track
--------------------------------------------------------------------------------
DR9        0.00 dB   -10.70 dB      2:45 01-Run Run Run
DR10       0.00 dB   -11.09 dB      2:30 02-Boris The Spider
DR10       0.00 dB   -12.50 dB      2:24 03-I Need You
DR11       0.00 dB   -13.78 dB      2:58 04-Whiskey Man
DR9        0.00 dB   -10.89 dB      1:55 05-Heat Wave
DR11       0.00 dB   -13.49 dB      2:32 06-Cobwebs And Strange
DR11       0.00 dB   -13.74 dB      2:54 07-Don't Look Away
DR9       -0.07 dB   -12.00 dB      1:54 08-See My Way
DR10       0.00 dB   -10.63 dB      3:04 09-So Sad About Us
DR12       0.00 dB   -14.04 dB      9:14 10-A Quick One, While He's Away
DR10       0.00 dB   -10.89 dB      1:36 11-Batman
DR11       0.00 dB   -11.53 dB      2:10 12-Bucket T
DR10       0.00 dB   -11.31 dB      2:00 13-Barbara Ann
DR9       -0.20 dB   -11.10 dB      3:22 14-Disguises
DR12       0.00 dB   -13.78 dB      2:09 15-I've Been Away
DR11       0.00 dB   -12.33 dB      2:25 16-In The City
DR10       0.00 dB   -11.22 dB      2:47 17-Man With Money
DR9        0.00 dB   -10.20 dB      2:05 18-My Generation / Land of Hope and Glory (Live)
--------------------------------------------------------------------------------

Number of tracks:  18
Official DR value: DR10

Samplerate:        96000 Hz
Channels:          2
Bits per sample:   24
Bitrate:           2802 kbps
Codec:             FLAC
================================================================================




Create a new paste based on this one


Comments: