[ create a new paste ] login | about

Link: http://codepad.org/BUm1kNOW    [ raw code | fork ]

Plain Text, pasted on Jun 8:
foobar2000 1.3.15 / Dynamic Range Meter 1.1.1
log date: 2017-06-07 12:05:53

--------------------------------------------------------------------------------
Analyzed: The Beatles / Sgt. Pepper's Lonely Hearts Club Band [50th Anniversary 2x 180g Vinyl Edition]
--------------------------------------------------------------------------------

DR         Peak         RMS     Duration Track
--------------------------------------------------------------------------------
DR9       -2.00 dB   -13.55 dB      2:02 01-Sgt. Pepper's Lonely Hearts Club Band
DR10      -1.99 dB   -14.42 dB      2:45 02-With A Little Help From My Friends
DR9       -2.44 dB   -15.30 dB      3:27 03-Lucy In The Sky WIth Diamonds
DR10      -1.45 dB   -13.13 dB      2:46 04-Getting Better
DR11      -0.30 dB   -13.77 dB      2:37 05-Fixing A Hole
DR10      -3.09 dB   -15.33 dB      3:25 06-She's Leaving Home
DR9       -2.20 dB   -12.90 dB      2:40 07-Being For The Benefit Of Mr. Kite
DR10      -1.67 dB   -15.39 dB      5:05 08-Within You Without You
DR11      -2.08 dB   -14.97 dB      2:39 09-When I'm Sixty-Four
DR9       -2.49 dB   -12.86 dB      2:45 10-Lovely Rita
DR9       -1.73 dB   -13.08 dB      2:34 11-Good Morning Good Morning
DR8       -2.12 dB   -12.76 dB      1:20 12-Sgt. Pepper's Lonely Hearts Club Band (Reprise)
DR10      -0.61 dB   -13.80 dB      5:03 13-A Day In The Life
DR12      -3.75 dB   -22.00 dB      0:55 14-[runout groove]
--------------------------------------------------------------------------------

Number of tracks:  14
Official DR value: DR10

Samplerate:        44100 Hz
Channels:          2
Bits per sample:   16
Bitrate:           665 kbps
Codec:             FLAC
================================================================================




Create a new paste based on this one


Comments: