[ create a new paste ] login | about

Link: http://codepad.org/BYCYyxa2    [ raw code | fork ]

Plain Text, pasted on Apr 18:
foobar2000 1.4.1 / Dynamic Range Meter 1.1.1
log date: 2019-04-17 21:05:30

--------------------------------------------------------------------------------
Analyzed: ? / ?
--------------------------------------------------------------------------------

DR         Peak         RMS     Duration Track
--------------------------------------------------------------------------------
DR14      -6.68 dB   -25.20 dB      4:56 01-Summertime
DR12      -6.77 dB   -22.18 dB      3:47 02-Can't We Be Friends
DR11      -6.90 dB   -22.10 dB      4:32 03-A Foggy Day
DR14      -6.85 dB   -24.04 dB      3:58 04-Love Is Here To Stay
DR13      -6.75 dB   -22.30 dB      4:57 05-Don't Be That Way
DR12      -7.43 dB   -22.20 dB      4:45 06-I Won't Dance
DR11      -6.87 dB   -20.32 dB      3:09 07-I've Got My Love To Keep Me Warm
DR15      -6.79 dB   -25.05 dB      5:57 08-Autumn in New York
DR12      -7.57 dB   -22.27 dB      5:12 09-Stompin' At The Savoy
DR12      -8.06 dB   -21.73 dB      3:51 10-A Fine Romance
DR13      -8.26 dB   -24.51 dB      4:12 11-Let's Call The Whole Thing Off
DR13      -6.84 dB   -23.25 dB      5:53 12-Cheek To Cheek
DR14      -6.84 dB   -24.24 dB      3:42 13-Moonlight in Vermont
DR13      -6.86 dB   -22.57 dB      4:38 14-They Can't Take That Away From Me
DR13      -6.75 dB   -23.19 dB      4:16 15-Under A Blanket of Blue
DR13      -7.35 dB   -24.06 dB      5:09 16-Tenderly
--------------------------------------------------------------------------------

Number of tracks:  16
Official DR value: DR13

Samplerate:        2822400 Hz / PCM Samplerate: 176400 Hz
Channels:          2
Bits per sample:   1
Bitrate:           5645 kbps
Codec:             DST64
================================================================================




Create a new paste based on this one


Comments: