[ create a new paste ] login | about

Link: http://codepad.org/Bd3XRduW    [ raw code | fork ]

Plain Text, pasted on Dec 21:
Exact Audio Copy V1.0 beta 3 from 29. August 2011

EAC extraction logfile from 26. August 2014, 22:08

Suede / Head Music

Used drive  : PIONEER DVD-RW  DVR-118L   Adapter: 2  ID: 0

Read mode               : Secure
Utilize accurate stream : Yes
Defeat audio cache      : Yes
Make use of C2 pointers : No

Read offset correction                      : 6
Overread into Lead-In and Lead-Out          : No
Fill up missing offset samples with silence : Yes
Delete leading and trailing silent blocks   : No
Null samples used in CRC calculations       : Yes
Used interface                              : Native Win32 interface for Win NT & 2000
Gap handling                                : Appended to previous track

Used output format              : User Defined Encoder
Selected bitrate                : 1024 kBit/s
Quality                         : High
Add ID3 tag                     : No
Command line compressor         : C:\Program Files (x86)\Exact Audio Copy\Flac\flac.exe
Additional command line options : -8 -V -T "ARTIST=%artist%" -T "TITLE=%title%" -T "ALBUM=%albumtitle%" -T "DATE=%year%" -T "TRACKNUMBER=%tracknr%" -T "GENRE=%genre%" -T "PERFORMER=%albuminterpret%" -T "COMPOSER=%composer%" %haslyrics%--tag-from-file=LYRICS="%lyricsfile%"%haslyrics% -T "ALBUMARTIST=%albumartist%" -T "DISCNUMBER=%cdnumber%" -T "TOTALDISCS=%totalcds%" -T "TOTALTRACKS=%numtracks%" -T "COMMENT=%comment%" %source% -o %dest%


TOC of the extracted CD

     Track |   Start  |  Length  | Start sector | End sector 
    ---------------------------------------------------------
        1  |  0:00.00 |  4:39.42 |         0    |    20966   
        2  |  4:39.42 |  4:37.44 |     20967    |    41785   
        3  |  9:17.11 |  3:59.11 |     41786    |    59721   
        4  | 13:16.22 |  4:40.03 |     59722    |    80724   
        5  | 17:56.25 |  6:12.47 |     80725    |   108671   
        6  | 24:08.72 |  4:52.72 |    108672    |   130643   
        7  | 29:01.69 |  5:17.55 |    130644    |   154473   
        8  | 34:19.49 |  3:23.66 |    154474    |   169764   
        9  | 37:43.40 |  3:06.38 |    169765    |   183752   
       10  | 40:50.03 |  5:09.36 |    183753    |   206963   
       11  | 45:59.39 |  4:21.08 |    206964    |   226546   
       12  | 50:20.47 |  5:35.17 |    226547    |   251688   
       13  | 55:55.64 |  1:59.40 |    251689    |   260653   


Track  1

     Filename D:\CDRip\01 - Electricity.wav

     Pre-gap length  0:00:02.00

     Peak level 97.0 %
     Extraction speed 1.1 X
     Track quality 100.0 %
     Test CRC 6EACB650
     Copy CRC 6EACB650
     Track not present in AccurateRip database
     Copy OK

Track  2

     Filename D:\CDRip\02 - Savoir Faire.wav

     Peak level 97.1 %
     Extraction speed 1.2 X
     Track quality 100.0 %
     Test CRC 261E3C6E
     Copy CRC 261E3C6E
     Track not present in AccurateRip database
     Copy OK

Track  3

     Filename D:\CDRip\03 - Can' t get enough.wav

     Pre-gap length  0:00:00.48

     Peak level 97.1 %
     Extraction speed 1.3 X
     Track quality 100.0 %
     Test CRC 428A7C84
     Copy CRC 428A7C84
     Track not present in AccurateRip database
     Copy OK

Track  4

     Filename D:\CDRip\04 - Everything Will Flow.wav

     Pre-gap length  0:00:00.94

     Peak level 97.1 %
     Extraction speed 1.4 X
     Track quality 100.0 %
     Test CRC A5545910
     Copy CRC A5545910
     Track not present in AccurateRip database
     Copy OK

Track  5

     Filename D:\CDRip\05 - Down.wav

     Pre-gap length  0:00:00.33

     Peak level 94.7 %
     Extraction speed 1.6 X
     Track quality 100.0 %
     Test CRC 0FF676AD
     Copy CRC 0FF676AD
     Track not present in AccurateRip database
     Copy OK

Track  6

     Filename D:\CDRip\06 - She's In Fashion.wav

     Pre-gap length  0:00:00.14

     Peak level 97.1 %
     Extraction speed 1.7 X
     Track quality 100.0 %
     Test CRC 2D79252C
     Copy CRC 2D79252C
     Track not present in AccurateRip database
     Copy OK

Track  7

     Filename D:\CDRip\07 - Asbestos.wav

     Pre-gap length  0:00:01.21

     Peak level 97.1 %
     Extraction speed 1.7 X
     Track quality 99.9 %
     Test CRC FBD5854E
     Copy CRC FBD5854E
     Track not present in AccurateRip database
     Copy OK

Track  8

     Filename D:\CDRip\08 - Head Music.wav

     Peak level 97.1 %
     Extraction speed 1.8 X
     Track quality 100.0 %
     Test CRC 2464BF00
     Copy CRC 2464BF00
     Track not present in AccurateRip database
     Copy OK

Track  9

     Filename D:\CDRip\09 - Elephant Man.wav

     Peak level 97.0 %
     Extraction speed 1.8 X
     Track quality 100.0 %
     Test CRC 9481F7A4
     Copy CRC 9481F7A4
     Track not present in AccurateRip database
     Copy OK

Track 10

     Filename D:\CDRip\10 - Hi-Fi.wav

     Pre-gap length  0:00:00.12

     Peak level 97.1 %
     Extraction speed 2.1 X
     Track quality 100.0 %
     Test CRC C05AAD64
     Copy CRC C05AAD64
     Track not present in AccurateRip database
     Copy OK

Track 11

     Filename D:\CDRip\11 - Indian Strings.wav

     Pre-gap length  0:00:00.08

     Peak level 91.6 %
     Extraction speed 2.1 X
     Track quality 100.0 %
     Test CRC 9E5DABB4
     Copy CRC 9E5DABB4
     Track not present in AccurateRip database
     Copy OK

Track 12

     Filename D:\CDRip\12 - He' s Gone.wav

     Pre-gap length  0:00:00.20

     Peak level 97.0 %
     Extraction speed 2.2 X
     Track quality 100.0 %
     Test CRC 3BEB19E7
     Copy CRC 3BEB19E7
     Track not present in AccurateRip database
     Copy OK

Track 13

     Filename D:\CDRip\13 - Crack In The Union Jack.wav

     Pre-gap length  0:00:01.02

     Peak level 96.8 %
     Extraction speed 1.5 X
     Track quality 99.9 %
     Test CRC DE3C09B9
     Copy CRC DE3C09B9
     Track not present in AccurateRip database
     Copy OK


None of the tracks are present in the AccurateRip database

No errors occurred

End of status report

---- CUETools DB Plugin V2.1.3

[CTDB TOCID: gwBVMhO.AXCXmo3Csh7g25kjjRc-] disk not present in database, Submit result: gwBVMhO.AXCXmo3Csh7g25kjjRc- has been uploaded


==== Log checksum 4E9C0B93771A0B1F474A5BD7D1457FCB78B060AA4B6CC1F7F622A31F94757E87 ====



Create a new paste based on this one


Comments: