[ create a new paste ] login | about

Link: http://codepad.org/BeuL00fl    [ raw code | fork ]

Plain Text, pasted on Aug 13:
foobar2000 1.4.4 / Dynamic Range Meter 1.1.1
log date: 2019-08-13 10:52:13

--------------------------------------------------------------------------------
Analyzed: Pete Townshend / Quadrophenia (Super Deluxe Edition) (1-24)
          The Who / Quadrophenia (Super Deluxe Edition) (25-42)
--------------------------------------------------------------------------------

DR         Peak         RMS     Duration Track
--------------------------------------------------------------------------------
DR9        0.00 dB   -11.25 dB      6:21 19-Quadrophenia - 4 Overtures (Demo)
DR9        0.00 dB   -11.98 dB      3:30 20-Cut My Hair (Demo)
DR8        0.00 dB   -10.22 dB      1:24 21-Fill No' 1 - Get Out and Stay Out (Demo)
DR9        0.00 dB   -11.06 dB      4:04 22-Quadrophenic Four Faces (Demo)
DR10       0.00 dB   -11.02 dB      2:44 23-We Close Tonight (Demo)
DR9        0.00 dB   -10.71 dB      3:19 24-You Came Back (Demo)
DR10       0.00 dB   -11.74 dB      3:11 25-Get Inside (Demo)
DR10       0.00 dB   -11.43 dB      3:42 26-Joker James (Demo)
DR9        0.00 dB   -10.03 dB      4:56 27-Punk (Demo)
DR12       0.00 dB   -14.86 dB      2:37 28-I'm One (Demo)
DR10       0.00 dB   -11.41 dB      3:48 29-Dirty Jobs (Demo)
DR9        0.00 dB   -10.72 dB      2:16 30-Helpless Dancer (Demo)
DR10       0.00 dB   -11.74 dB      4:13 31-Is It In My Head? (Demo)
DR9       -0.24 dB   -12.00 dB      3:23 32-Any More (Demo)
DR11       0.00 dB   -13.39 dB      1:33 33-Fill No' 2 (Demo)
DR10       0.00 dB   -11.17 dB      6:24 34-I've Had Enough (Demo)
DR9        0.00 dB   -11.04 dB      3:10 35-Wizardry (Demo)
DR9        0.00 dB   -10.84 dB      4:18 36-Sea and Sand (Demo)
DR8        0.00 dB    -9.95 dB      4:15 37-Drowned (Demo)
DR8        0.00 dB   -11.09 dB      4:47 38-Is It Me? (Demo)
DR9        0.00 dB   -10.28 dB      5:04 39-Bell Boy (Demo)
DR8        0.00 dB    -9.85 dB      7:31 40-Doctor Jimmy (Demo)
DR9        0.00 dB   -11.12 dB      8:01 41-Finale - The Rock (Demo)
DR9        0.00 dB   -11.38 dB      5:10 42-Love Reign O'er Me (Demo)
DR12      -0.69 dB   -20.98 dB      2:09 01-I Am the Sea
DR11       0.00 dB   -12.64 dB      3:20 02-The Real Me
DR12       0.00 dB   -14.29 dB      6:17 03-Quadrophenia
DR12       0.00 dB   -13.85 dB      3:46 04-Cut My Hair
DR12       0.00 dB   -13.49 dB      5:18 05-The Punk and the Godfather
DR12       0.00 dB   -14.28 dB      2:39 06-I'm One
DR11       0.00 dB   -12.13 dB      4:30 07-The Dirty Jobs
DR12      -0.31 dB   -15.33 dB      2:36 08-Helpless Dancer
DR12       0.00 dB   -13.84 dB      3:46 09-Is It In My Head?
DR12       0.00 dB   -14.26 dB      6:18 10-I've Had Enough
DR11       0.00 dB   -12.55 dB      5:03 11-5:15
DR12       0.00 dB   -13.28 dB      5:06 12-Sea and Sand
DR12       0.00 dB   -13.07 dB      5:28 13-Drowned
DR12       0.00 dB   -12.99 dB      5:00 14-Bell Boy
DR12       0.00 dB   -14.30 dB      8:39 15-Doctor Jimmy
DR13       0.00 dB   -14.34 dB      6:40 16-The Rock
DR11       0.00 dB   -13.09 dB      5:55 17-Love Reign O'er Me
DR9        0.00 dB   -11.27 dB      4:27 18-The Real Me (Demo)
--------------------------------------------------------------------------------

Number of tracks:  42
Official DR value: DR10

Samplerate:        96000 Hz
Channels:          2
Bits per sample:   24
Bitrate:           2910 kbps
Codec:             FLAC
================================================================================




Create a new paste based on this one


Comments: