[ create a new paste ] login | about

Link: http://codepad.org/BfSfr8J2    [ raw code | fork ]

Plain Text, pasted on Sep 3:
foobar2000 1.3 / Dynamic Range Meter 1.1.1
log date: 2014-03-07 11:21:10

--------------------------------------------------------------------------------
Analyzed: Sex Pistols / The Great Rock 'N' Roll Swindle (2013 SHM-SACD)
--------------------------------------------------------------------------------

DR         Peak         RMS     Duration Track
--------------------------------------------------------------------------------
DR10      -1.41 dB   -16.68 dB      3:59 01-God Save The Queen (Symphony)
DR9       -0.81 dB   -12.31 dB      2:36 02-Johnny B Goode
DR9       -1.04 dB   -12.75 dB      3:40 03-Roadrunner
DR9       -0.01 dB   -10.92 dB      4:46 04-Black Arabs
DR8       -0.98 dB   -10.33 dB      4:05 05-Anarchy In The U.K.
DR8       -1.07 dB   -11.87 dB      3:04 06-Substitute
DR8       -0.74 dB   -11.60 dB      3:28 07-Don't Give Me No Lip, Child
DR7       -1.05 dB   -10.71 dB      3:06 08-(I'm Not Your) Stepping Stone
DR10      -2.32 dB   -17.18 dB      3:24 09-L'Anarchie Pour Le UK
DR8       -1.65 dB   -11.42 dB      2:09 10-Belsen Was A Gas
DR8       -1.42 dB   -10.91 dB      2:13 11-Belsen Was A Gassa
DR8       -0.85 dB    -9.87 dB      2:52 12-Silly Thing
DR7       -0.87 dB   -10.57 dB      4:05 13-My Way
DR8       -1.21 dB   -11.64 dB      3:04 14-I Wanna Be Me
DR8       -1.38 dB   -12.12 dB      2:10 15-Something Else
DR8       -1.02 dB   -10.73 dB      2:03 16-Rock Around The Clock
DR8       -1.00 dB   -11.03 dB      3:02 17-Lonely Boy
DR8       -1.06 dB   -10.22 dB      2:57 18-No One Is Innocent
DR8       -1.34 dB   -11.25 dB      1:55 19-C'Mon Everybody
DR11      -1.75 dB   -16.15 dB      3:44 20-EMI (Orchestral)
DR8       -1.14 dB   -10.56 dB      4:15 21-The Great Rock 'N' Roll Swindle
DR7       -1.00 dB   -11.70 dB      3:32 22-Friggin' In The Riggin'
DR12      -3.32 dB   -19.90 dB      2:50 23-You Need Hands
DR10      -1.94 dB   -14.66 dB      3:02 24-Who Killed Bambi?
DR9       -0.59 dB   -12.58 dB      1:59 25-Watcha Gonna Do About It?
--------------------------------------------------------------------------------

Number of tracks:  25
Official DR value: DR9

Samplerate:        88200 Hz
Channels:          2
Bits per sample:   24
Bitrate:           2707 kbps
Codec:             FLAC
================================================================================




Create a new paste based on this one


Comments: