[ create a new paste ] login | about

Link: http://codepad.org/BlEwzDvP    [ raw code | fork ]

Plain Text, pasted on Apr 29:
foobar2000 1.3.14 / Dynamic Range Meter 1.1.1
log date: 2017-04-29 11:30:24

--------------------------------------------------------------------------------
Analyzed: Frank Sinatra / No One Cares [MFSL UDSACD 2111] (2013)
--------------------------------------------------------------------------------

DR         Peak         RMS     Duration Track
--------------------------------------------------------------------------------
DR12      -1.73 dB   -18.78 dB      2:45 01-When No One Cares
DR12      -0.63 dB   -19.21 dB      3:19 02-A Cottage For Sale
DR12      -0.23 dB   -17.85 dB      3:23 03-Stormy Weather
DR11      -0.89 dB   -18.09 dB      2:35 04-Where Do You Go?
DR12      -1.25 dB   -17.37 dB      3:19 05-I Don't Stand A Ghost Of A Chance With You
DR12      -1.81 dB   -19.15 dB      3:37 06-Here's That Rainy Day
DR12      -0.44 dB   -17.73 dB      4:03 07-I Can't Get Started
DR12      -1.27 dB   -18.01 dB      3:44 08-Why Try To Change Me Now?
DR12      -1.00 dB   -18.55 dB      3:42 09-Just Friends
DR10      -1.25 dB   -16.65 dB      3:48 10-I'll Never Smile Again
DR11      -0.36 dB   -17.87 dB      3:47 11-None But The Lonely Heart
--------------------------------------------------------------------------------

Number of tracks:  11
Official DR value: DR12

Samplerate:        44100 Hz
Channels:          2
Bits per sample:   16
Bitrate:           730 kbps
Codec:             FLAC
================================================================================




Create a new paste based on this one


Comments: