[ create a new paste ] login | about

Link: http://codepad.org/Bpgy1ijQ    [ raw code | fork ]

Plain Text, pasted on May 8:
foobar2000 1.4.1 / Dynamic Range Meter 1.1.1
log date: 2019-05-07 19:03:38

--------------------------------------------------------------------------------
Analyzed: Miles Davis / Someday My Prince Will Come
--------------------------------------------------------------------------------

DR         Peak         RMS     Duration Track
--------------------------------------------------------------------------------
DR8      -12.45 dB   -29.57 dB      9:04 01-Someday My Prince Will Come
DR8      -12.00 dB   -29.78 dB      5:14 02-Old Folks
DR8      -10.71 dB   -28.87 dB      8:31 03-Pfrancing
DR7      -12.18 dB   -29.69 dB      4:30 04-Drad-Dog
DR8      -13.02 dB   -30.02 dB      9:34 05-Teo
DR8      -10.91 dB   -28.92 dB      4:56 06-I Thought About You
--------------------------------------------------------------------------------

Number of tracks:  6
Official DR value: DR8

Samplerate:        2822400 Hz / PCM Samplerate: 176400 Hz
Channels:          5
Bits per sample:   1
Bitrate:           14112 kbps
Codec:             DST64
================================================================================

--------------------------------------------------------------------------------
Analyzed: Miles Davis / Someday My Prince Will Come
--------------------------------------------------------------------------------

DR         Peak         RMS     Duration Track
--------------------------------------------------------------------------------
DR13      -6.64 dB   -22.89 dB      9:08 01-Someday My Prince Will Come
DR12      -8.84 dB   -24.37 dB      5:21 02-Old Folks
DR13      -6.30 dB   -23.31 dB      8:37 03-Pfrancing
DR11      -8.41 dB   -23.27 dB      4:33 04-Drad-Dog
DR12      -5.95 dB   -20.56 dB      9:38 05-Teo
DR14      -6.04 dB   -24.25 dB      4:56 06-I Thought About You
--------------------------------------------------------------------------------

Number of tracks:  6
Official DR value: DR12

Samplerate:        2822400 Hz / PCM Samplerate: 176400 Hz
Channels:          2
Bits per sample:   1
Bitrate:           5645 kbps
Codec:             DSD64
================================================================================




Create a new paste based on this one


Comments: