[ create a new paste ] login | about

Link: http://codepad.org/C0Kmkyy3    [ raw code | fork ]

Plain Text, pasted on Dec 11:
foobar2000 1.3.17 / Dynamic Range Meter 1.1.1
log date: 2018-12-11 06:07:12

--------------------------------------------------------------------------------
Analyzed: Paul McCartney & Wings / Wild Life (Special Edition) (1-14)
          Paul McCartney / Wild Life (Special Edition) (15-27)
--------------------------------------------------------------------------------

DR         Peak         RMS     Duration Track
--------------------------------------------------------------------------------
DR10      -0.48 dB   -12.01 dB      3:58 01-Mumbo (2018 Remaster)
DR10      -0.55 dB   -12.09 dB      4:10 02-Bip Bop (2018 Remaster)
DR10      -0.57 dB   -12.39 dB      4:52 03-Love Is Strange (2018 Remaster)
DR9       -0.58 dB   -11.85 dB      6:41 04-Wild Life (2018 Remaster)
DR11      -0.50 dB   -14.18 dB      6:37 05-Some People Never Know (2018 Remaster)
DR11      -0.50 dB   -15.24 dB      2:19 06-I Am Your Singer (2018 Remaster)
DR13      -4.79 dB   -21.88 dB      0:52 07-Bip Bop Link (2018 Remaster)
DR9       -0.50 dB   -13.19 dB      3:28 08-Tomorrow (2018 Remaster)
DR13      -0.48 dB   -17.56 dB      6:00 09-Dear Friend (2018 Remaster)
DR12      -1.26 dB   -15.59 dB      0:46 10-Mumbo Link (2018 Remaster)
DR10      -1.40 dB   -12.87 dB      3:46 24-Give Ireland Back To The Irish
DR10      -0.40 dB   -13.06 dB      3:49 25-Give Ireland Back To The Irish (Alternate Version)
DR10      -2.66 dB   -14.52 dB      4:17 26-Love Is Strange (Single Edit)
DR13      -1.55 dB   -17.15 dB      2:44 27-African Yeah Yeah
DR12      -0.97 dB   -15.20 dB      0:59 11-Good Rockin’ Tonight (Home Recording)
DR16      -0.40 dB   -19.58 dB      3:18 12-Bip Bop (Home Recording)
DR14      -0.40 dB   -17.74 dB      2:33 13-Hey Diddle (Home Recording)
DR12      -0.40 dB   -16.59 dB      0:44 14-She Got It Good (Home Recording)
DR12      -0.40 dB   -15.87 dB      2:54 15-I Am Your Singer (Home Recording)
DR9       -6.36 dB   -19.08 dB      0:31 16-Outtake I
DR8       -3.97 dB   -14.46 dB      4:51 17-Dear Friend (Home Recording I)
DR9       -4.51 dB   -15.50 dB      2:04 18-Dear Friend (Home Recording II)
DR7       -6.58 dB   -18.56 dB      0:16 19-Outtake II
DR9       -3.40 dB   -14.15 dB      1:17 20-Indeed I Do
DR11      -0.40 dB   -14.66 dB      3:53 21-When The Wind Is Blowing
DR11      -1.77 dB   -15.20 dB      4:04 22-The Great Cock And Seagull Race (Mono/Rough Mix)
DR11      -3.46 dB   -17.62 dB      0:12 23-Outtake III
--------------------------------------------------------------------------------

Number of tracks:  27
Official DR value: DR11

Samplerate:        96000 Hz
Channels:          2
Bits per sample:   24
Bitrate:           1343 kbps
Codec:             FLAC
================================================================================




Create a new paste based on this one


Comments: