[ create a new paste ] login | about

Link: http://codepad.org/C2VbLhaj    [ raw code | fork ]

Plain Text, pasted on Aug 16:
foobar2000 1.4.4 / Dynamic Range Meter 1.1.1
log date: 2019-08-16 09:34:57

--------------------------------------------------------------------------------
Analyzed: Bob Dylan / Blood On The Tracks [Mobile Fidelity Sound Labs One-Step 45RPM Vinyl]
--------------------------------------------------------------------------------

DR         Peak         RMS     Duration Track
--------------------------------------------------------------------------------
DR13      -0.46 dB   -15.37 dB      5:41 01-Tangled Up In Blue
DR12      -0.79 dB   -16.41 dB      4:17 02-Simple Twist Of Fate
DR12      -2.82 dB   -18.42 dB      4:33 03-You're A Big Girl Now
DR13      -0.49 dB   -15.87 dB      7:48 04-Idiot Wind
DR11      -1.84 dB   -16.65 dB      2:55 05-You're Gonna Make Me Lonesome When You Go
DR13      -1.62 dB   -17.13 dB      4:21 06-Meet Me In The Morning
DR12      -1.41 dB   -14.86 dB      8:50 07-Lily, Rosemary And The Jack Of Hearts
DR11      -4.39 dB   -18.37 dB      4:48 08-If You See Her, Say Hello
DR13      -1.69 dB   -17.96 dB      5:00 09-Shelter From The Storm
DR13      -4.07 dB   -19.50 dB      3:25 10-Buckets Of Rain
--------------------------------------------------------------------------------

Number of tracks:  10
Official DR value: DR12

Samplerate:        44100 Hz
Channels:          2
Bits per sample:   16
Bitrate:           686 kbps
Codec:             FLAC
================================================================================




Create a new paste based on this one


Comments: