[ create a new paste ] login | about

Link: http://codepad.org/C4Zamunk    [ raw code | fork ]

Plain Text, pasted on Feb 3:
foobar2000 1.6 / Dynamic Range Meter 1.1.1
log date: 2021-02-03 04:23:56

--------------------------------------------------------------------------------
Analyzed: Art Tatum / Piano Starts Here: Live at The Shrine  Zenph Re-performance
--------------------------------------------------------------------------------

DR         Peak         RMS     Duration Track
--------------------------------------------------------------------------------
DR14     -10.07 dB   -28.27 dB      3:14 01-Tea For Two (SACD Stereo)
DR13     -10.97 dB   -29.38 dB      2:42 02-St. Louis Blues (SACD Stereo)
DR13      -9.96 dB   -28.24 dB      2:22 03-Tiger Rag (SACD Stereo)
DR13      -9.20 dB   -28.34 dB      3:18 04-Sophisticated Lady (SACD Stereo)
DR16      -6.66 dB   -30.44 dB      3:48 05-Humoresque (SACD Stereo)
DR16      -7.34 dB   -28.34 dB      2:33 06-Tatum Pole Boogie (SACD Stereo)
DR17      -8.91 dB   -30.04 dB      3:35 07-Someone To Watch Over Me (SACD Stereo)
DR15      -7.41 dB   -27.97 dB      2:30 08-How High The Moon (SACD Stereo)
DR17      -6.70 dB   -30.24 dB      3:28 09-Yesterdays (SACD Stereo)
DR17      -8.26 dB   -30.61 dB      3:17 10-Willow Weep For Me (SACD Stereo)
DR15      -7.70 dB   -31.81 dB      1:06 11-The Kerry Dance (SACD Stereo)
DR17      -6.75 dB   -30.12 dB      3:59 12-Gershwin Medley (SACD Stereo)
DR16      -9.49 dB   -30.34 dB      2:40 13-I Know That You Know (SACD Stereo)
--------------------------------------------------------------------------------

Number of tracks:  13
Official DR value: DR15

Samplerate:        2822400 Hz / PCM Samplerate: 176400 Hz
Channels:          5
Bits per sample:   1
Bitrate:           14112 kbps
Codec:             DST64
================================================================================

--------------------------------------------------------------------------------
Analyzed: Art Tatum / Piano Starts Here: Live at The Shrine  Zenph Re-performance
--------------------------------------------------------------------------------

DR         Peak         RMS     Duration Track
--------------------------------------------------------------------------------
DR13      -8.16 dB   -24.46 dB      3:14 01-Tea For Two (SACD Stereo)
DR13      -8.44 dB   -25.69 dB      2:42 02-St. Louis Blues (SACD Stereo)
DR13      -6.36 dB   -24.41 dB      2:22 03-Tiger Rag (SACD Stereo)
DR12      -9.29 dB   -24.49 dB      3:18 04-Sophisticated Lady (SACD Stereo)
DR14      -9.18 dB   -25.79 dB      3:48 05-Humoresque (SACD Stereo)
DR14      -5.76 dB   -23.34 dB      2:33 06-Tatum Pole Boogie (SACD Stereo)
DR15      -7.92 dB   -25.19 dB      3:35 07-Someone To Watch Over Me (SACD Stereo)
DR13      -5.89 dB   -23.04 dB      2:30 08-How High The Moon (SACD Stereo)
DR15      -5.44 dB   -25.31 dB      3:28 09-Yesterdays (SACD Stereo)
DR15      -7.95 dB   -25.73 dB      3:17 10-Willow Weep For Me (SACD Stereo)
DR13      -8.82 dB   -27.05 dB      1:06 11-The Kerry Dance (SACD Stereo)
DR15      -6.65 dB   -25.22 dB      3:59 12-Gershwin Medley (SACD Stereo)
DR14      -7.67 dB   -25.64 dB      2:40 13-I Know That You Know (SACD Stereo)
DR15      -5.00 dB   -22.66 dB      3:14 14-Tea For Two (SACD Binaural Stereo)
DR15      -5.01 dB   -23.47 dB      2:42 15-St. Louis Blues (SACD Binaural Stereo)
DR15      -2.75 dB   -22.53 dB      2:21 16-Tiger Rag (SACD Binaural Stereo)
DR14      -6.29 dB   -23.44 dB      3:18 17-Sophisticated Lady (SACD Binaural Stereo)
DR15      -8.71 dB   -27.27 dB      3:48 18-Humoresque (SACD Binaural Stereo)
DR16      -4.08 dB   -24.79 dB      2:33 19-Tatum Pole Boogie (SACD Binaural Stereo)
DR16      -6.24 dB   -26.88 dB      3:35 20-Someone To Watch Over Me (SACD Binaural Stereo)
DR15      -6.68 dB   -24.80 dB      2:30 21-How High The Moon (SACD Binaural Stereo)
DR17      -6.33 dB   -27.25 dB      3:28 22-Yesterdays (SACD Binaural Stereo)
DR16      -7.95 dB   -27.57 dB      3:17 23-Willow Weep For Me (SACD Binaural Stereo)
DR15      -8.57 dB   -29.12 dB      1:06 24-The Kerry Dance (SACD Binaural Stereo)
DR16      -6.57 dB   -26.56 dB      3:59 25-Gershwin Medley (SACD Binaural Stereo)
DR15      -6.39 dB   -25.98 dB      2:41 26-I Know That You Know (SACD Binaural Stereo)
--------------------------------------------------------------------------------

Number of tracks:  26
Official DR value: DR15

Samplerate:        2822400 Hz / PCM Samplerate: 176400 Hz
Channels:          2
Bits per sample:   1
Bitrate:           5645 kbps
Codec:             DST64
================================================================================




Create a new paste based on this one


Comments: