[ create a new paste ] login | about

Link: http://codepad.org/C5MKsfBn    [ raw code | fork ]

Plain Text, pasted on Aug 3:
foobar2000 1.3.17 / Dynamic Range Meter 1.1.1
log date: 2018-07-31 19:40:00

--------------------------------------------------------------------------------
Analyzed: Janet Feder / Songs With Words
--------------------------------------------------------------------------------

DR         Peak         RMS     Duration Track
--------------------------------------------------------------------------------
DR14      -7.59 dB   -29.97 dB      5:17 01-Heater
DR15      -5.80 dB   -30.04 dB      4:44 02-Your Country Is Like A Wall
DR13     -14.38 dB   -34.33 dB      3:29 03-My Blackest Crow
DR14      -6.87 dB   -30.74 dB      3:59 04-A Thousand Million Petty Tyrants
DR13      -6.49 dB   -29.45 dB      4:41 05-Blowin' In The Wind
DR14      -7.85 dB   -30.49 dB      3:42 06-O The Sky Falling Moment
DR15      -4.15 dB   -29.69 dB      7:03 07-Plan To Live
DR13     -12.14 dB   -30.96 dB      3:46 08-White Men Landing
DR15      -3.88 dB   -30.77 dB      3:20 09-Trees Are Burning
DR21     -29.48 dB   -59.72 dB      0:18 10-Janet Feder - Songs With Words
DR13     -17.36 dB   -34.91 dB      3:55 11-Ocean Wall
--------------------------------------------------------------------------------

Number of tracks:  11
Official DR value: DR14

Samplerate:        2822400 Hz / PCM Samplerate: 176400 Hz
Channels:          6
Bits per sample:   1
Bitrate:           16934 kbps
Codec:             DST64
================================================================================

--------------------------------------------------------------------------------
Analyzed: Janet Feder / Songs With Words
--------------------------------------------------------------------------------

DR         Peak         RMS     Duration Track
--------------------------------------------------------------------------------
DR14      -5.58 dB   -26.49 dB      5:17 01-Heater
DR16      -4.12 dB   -25.38 dB      4:44 02-Your Country Is Like A Wall
DR13     -14.67 dB   -31.79 dB      3:29 03-My Blackest Crow
DR15      -6.69 dB   -27.79 dB      3:59 04-A Thousand Million Petty Tyrants
DR14      -6.67 dB   -26.65 dB      4:41 05-Blowin' In The Wind
DR14      -6.80 dB   -26.39 dB      3:42 06-O The Sky Falling Moment
DR18      -3.93 dB   -26.26 dB      7:03 07-Plan To Live
DR13     -12.57 dB   -29.21 dB      3:46 08-White Men Landing
DR19      -3.95 dB   -30.62 dB      3:20 09-Trees Are Burning
DR12     -22.30 dB   -35.25 dB      0:18 10-Janet Feder - Songs With Words
DR13     -16.08 dB   -32.96 dB      4:01 11-Ocean Wall
--------------------------------------------------------------------------------

Number of tracks:  11
Official DR value: DR15

Samplerate:        2822400 Hz / PCM Samplerate: 176400 Hz
Channels:          2
Bits per sample:   1
Bitrate:           5645 kbps
Codec:             DSD64
================================================================================




Create a new paste based on this one


Comments: