[ create a new paste ] login | about

Link: http://codepad.org/C5meSdRe    [ raw code | fork ]

Plain Text, pasted on May 14:
Exact Audio Copy V1.1 from 23. June 2015

EAC extraction logfile from 7. May 2016, 9:32

Bob Dylan / Live 1964 AF 1

Used drive  : PLEXTOR BD-R  PX-B950SA   Adapter: 1  ID: 1

Read mode               : Secure
Utilize accurate stream : Yes
Defeat audio cache      : Yes
Make use of C2 pointers : No

Read offset correction                      : 6
Overread into Lead-In and Lead-Out          : No
Fill up missing offset samples with silence : Yes
Delete leading and trailing silent blocks   : No
Null samples used in CRC calculations       : Yes
Used interface                              : Native Win32 interface for Win NT & 2000

Used output format : Internal WAV Routines
Sample format      : 44.100 Hz; 16 Bit; Stereo


TOC of the extracted CD

     Track |   Start  |  Length  | Start sector | End sector 
    ---------------------------------------------------------
        1  |  0:00.00 |  3:56.20 |         0    |    17719   
        2  |  3:56.20 |  2:54.70 |     17720    |    30839   
        3  |  6:51.15 |  4:21.60 |     30840    |    50474   
        4  | 11:13.00 |  5:11.60 |     50475    |    73859   
        5  | 16:24.60 |  4:46.63 |     73860    |    95372   
        6  | 21:11.48 |  8:36.62 |     95373    |   134134   
        7  | 29:48.35 |  3:55.59 |    134135    |   151818   
        8  | 33:44.19 |  9:55.60 |    151819    |   196503   
        9  | 43:40.04 |  5:29.25 |    196504    |   221203   
       10  | 49:09.29 |  6:37.70 |    221204    |   251048   
       11  | 55:47.24 |  7:45.74 |    251049    |   285997   


Range status and errors

Selected range

     Filename C:\Bob Dylan\2004 Live 1964 (2 Hybrid Multichannel SACD Audio Fidelity 2016)\CD1\Bob Dylan - Live 1964 AF 1.wav

     Peak level 97.5 %
     Extraction speed 3.8 X
     Range quality 100.0 %
     Test CRC 17E87E4F
     Copy CRC 17E87E4F
     Copy OK

No errors occurred

 
AccurateRip summary
 
Track  1  accurately ripped (confidence 5)  [6679F8F3]  (AR v2)
Track  2  accurately ripped (confidence 5)  [475B51A7]  (AR v2)
Track  3  accurately ripped (confidence 5)  [6FB8E5B8]  (AR v2)
Track  4  accurately ripped (confidence 5)  [9FECF359]  (AR v2)
Track  5  accurately ripped (confidence 5)  [8D527687]  (AR v2)
Track  6  accurately ripped (confidence 5)  [9E8F513D]  (AR v2)
Track  7  accurately ripped (confidence 5)  [5F548361]  (AR v2)
Track  8  accurately ripped (confidence 5)  [6D556925]  (AR v2)
Track  9  accurately ripped (confidence 5)  [ECBAF8B1]  (AR v2)
Track 10  accurately ripped (confidence 5)  [7C44AB0E]  (AR v2)
Track 11  accurately ripped (confidence 5)  [A46F140D]  (AR v2)
 
All tracks accurately ripped

End of status report

---- CUETools DB Plugin V2.1.6

[CTDB TOCID: leKSRfptMECurjozJHQJYbg.35s-] found
Submit result: leKSRfptMECurjozJHQJYbg.35s- has been confirmed
Track | CTDB Status
  1   | (5/5) Accurately ripped
  2   | (5/5) Accurately ripped
  3   | (5/5) Accurately ripped
  4   | (5/5) Accurately ripped
  5   | (5/5) Accurately ripped
  6   | (5/5) Accurately ripped
  7   | (5/5) Accurately ripped
  8   | (5/5) Accurately ripped
  9   | (5/5) Accurately ripped
 10   | (5/5) Accurately ripped
 11   | (5/5) Accurately ripped


==== Log checksum 5E7DBE1B4DEB3520D5EC51699D0E57BD6B4AE89AD278A010F34F79A3AA91426D ====



Create a new paste based on this one


Comments: