[ create a new paste ] login | about

Link: http://codepad.org/C6QZd5oF    [ raw code | fork ]

Plain Text, pasted on Aug 13:
Exact Audio Copy V1.3 from 2. September 2016

EAC extraction logfile from 4. August 2018, 8:17

Buffalo Springfield / Buffalo Springfield Again (Mono)

Used drive  : PLEXTOR BD-R  PX-B950SA   Adapter: 1  ID: 1

Read mode               : Secure
Utilize accurate stream : Yes
Defeat audio cache      : Yes
Make use of C2 pointers : No

Read offset correction                      : 6
Overread into Lead-In and Lead-Out          : No
Fill up missing offset samples with silence : Yes
Delete leading and trailing silent blocks   : No
Null samples used in CRC calculations       : Yes
Used interface                              : Native Win32 interface for Win NT & 2000

Used output format : Internal WAV Routines
Sample format      : 44.100 Hz; 16 Bit; Stereo


TOC of the extracted CD

     Track |   Start  |  Length  | Start sector | End sector 
    ---------------------------------------------------------
        1  |  0:00.00 |  2:44.20 |         0    |    12319   
        2  |  2:44.20 |  2:12.58 |     12320    |    22277   
        3  |  4:57.03 |  2:42.70 |     22278    |    34497   
        4  |  7:39.73 |  3:49.40 |     34498    |    51712   
        5  | 11:29.38 |  4:33.65 |     51713    |    72252   
        6  | 16:03.28 |  3:28.43 |     72253    |    87895   
        7  | 19:31.71 |  3:05.00 |     87896    |   101770   
        8  | 22:36.71 |  2:15.59 |    101771    |   111954   
        9  | 24:52.55 |  2:48.26 |    111955    |   124580   
       10  | 27:41.06 |  6:17.55 |    124581    |   152910   


Range status and errors

Selected range

     Filename C:\Buffalo Springfield\2018 What's That Sound (5CD Box Set Rhino Records)\1967 Buffalo Springfield Again (Mono)\Buffalo Springfield - Buffalo Springfield Again (Mono).wav

     Peak level 99.7 %
     Extraction speed 6.4 X
     Range quality 99.9 %
     Test CRC 083C34C4
     Copy CRC 083C34C4
     Copy OK

No errors occurred

 
AccurateRip summary
 
Track  1  not present in database
Track  2  not present in database
Track  3  not present in database
Track  4  not present in database
Track  5  not present in database
Track  6  not present in database
Track  7  not present in database
Track  8  not present in database
Track  9  not present in database
Track 10  not present in database
 
None of the tracks are present in the AccurateRip database

End of status report

---- CUETools DB Plugin V2.1.6

[CTDB TOCID: RMZIE8nl5SOTV8KmcnIpalDUWKU-] found
Submit result: RMZIE8nl5SOTV8KmcnIpalDUWKU- has been confirmed
Track | CTDB Status
  1   | (18/18) Accurately ripped
  2   | (18/18) Accurately ripped
  3   | (18/18) Accurately ripped
  4   | (18/18) Accurately ripped
  5   | (18/18) Accurately ripped
  6   | (18/18) Accurately ripped
  7   | (18/18) Accurately ripped
  8   | (18/18) Accurately ripped
  9   | (18/18) Accurately ripped
 10   | (18/18) Accurately ripped


==== Log checksum 3BFB3A0383B7218F8BB1B5D72640F5AE50A497A95642FD062156F38E995373BC ====



Create a new paste based on this one


Comments: