[ create a new paste ] login | about

Link: http://codepad.org/C8kgUaHj    [ raw code | fork ]

Plain Text, pasted on Jul 6:
foobar2000 1.1.10 / Dynamic Range Meter 1.1.0
log date: 2012-01-12 12:44:57

--------------------------------------------------------------------------------
Analyzed: Stevie Wonder / Hotter Than July (2011 SHM-SACD)
--------------------------------------------------------------------------------

DR         Peak         RMS     Duration Track
--------------------------------------------------------------------------------
DR15      -0.94 dB   -18.55 dB      4:08 01-Did I Hear You Say You Love Me
DR16      -2.13 dB   -20.51 dB      5:06 02-All I Do
DR15      -0.92 dB   -20.77 dB      4:39 03-Rocket Love
DR14      -2.86 dB   -19.06 dB      4:39 04-I Ain't Gonna Stand For It
DR14      -2.13 dB   -19.03 dB      3:41 05-As If You Read My Mind
DR17      -0.01 dB   -19.94 dB      5:08 06-Master Blaster (Jammin')
DR16      -0.71 dB   -19.76 dB      4:25 07-Do Like You
DR16      -1.19 dB   -19.88 dB      3:59 08-Cash In Your Face
DR12      -4.74 dB   -20.90 dB      4:05 09-Lately
DR15      -1.05 dB   -19.97 dB      5:58 10-Happy Birthday
--------------------------------------------------------------------------------

Number of tracks:  10
Official DR value: DR15

Samplerate:        88200 Hz
Channels:          2
Bits per sample:   24
Bitrate:           2715 kbps
Codec:             FLAC
================================================================================




Create a new paste based on this one


Comments: