[ create a new paste ] login | about

Link: http://codepad.org/C8yp0Gu3    [ raw code | fork ]

Plain Text, pasted on May 24:
foobar2000 1.2.2 / Dynamic Range Meter 1.1.1
log date: 2013-06-03 11:49:35

--------------------------------------------------------------------------------
Analyzed: Isaac Hayes / Hot Buttered Soul (2002 MFSL Hybrid SACD)
--------------------------------------------------------------------------------

DR         Peak         RMS     Duration Track
--------------------------------------------------------------------------------
DR13      -0.65 dB   -17.55 dB     12:04 01-Walk On By
DR14      -0.14 dB   -16.47 dB      9:39 02-Hyperbolicsyllabicsesquedalymistic
DR13      -0.24 dB   -18.50 dB      5:10 03-One Woman
DR14      -0.01 dB   -19.58 dB     18:47 04-By The Time I Get To Phoenix
--------------------------------------------------------------------------------

Number of tracks:  4
Official DR value: DR13

Samplerate:        88200 Hz
Channels:          2
Bits per sample:   24
Bitrate:           2692 kbps
Codec:             FLAC
================================================================================




Create a new paste based on this one


Comments: