[ create a new paste ] login | about

Link: http://codepad.org/CFDzMiSx    [ raw code | fork ]

Plain Text, pasted on Feb 24:
Exact Audio Copy V1.3 from 2. September 2016

EAC extraction logfile from 7. January 2017, 21:10

Chic / Take It Off

Used drive  : PIONEER DVD-RW  DVR-112D   Adapter: 1  ID: 1

Read mode               : Secure
Utilize accurate stream : Yes
Defeat audio cache      : Yes
Make use of C2 pointers : No

Read offset correction                      : 48
Overread into Lead-In and Lead-Out          : No
Fill up missing offset samples with silence : Yes
Delete leading and trailing silent blocks   : No
Null samples used in CRC calculations       : Yes
Used interface                              : Native Win32 interface for Win NT & 2000
Gap handling                                : Appended to previous track

Used output format              : User Defined Encoder
Selected bitrate                : 1024 kBit/s
Quality                         : High
Add ID3 tag                     : No
Command line compressor         : C:\Program Files (x86)\Exact Audio Copy\Flac\flac.exe
Additional command line options : -8 -V -T "ARTIST=%artist%" -T "TITLE=%title%" -T "ALBUM=%albumtitle%" -T "DATE=%year%" -T "TRACKNUMBER=%tracknr%" -T "TOTALTRACKS=%numtracks%" -T "GENRE=%genre%" -T "ALBUMARTIST=%albumartist%" -T "ALBUM ARTIST=%albumartist%" -T "COMMENT=EAC Secure Mode, Test & Copy, AccurateRip, FLAC -8" %source%


TOC of the extracted CD

     Track |   Start  |  Length  | Start sector | End sector 
    ---------------------------------------------------------
        1  |  0:00.00 |  3:57.32 |         0    |    17806   
        2  |  3:57.32 |  5:12.67 |     17807    |    41273   
        3  |  9:10.24 |  4:10.13 |     41274    |    60036   
        4  | 13:20.37 |  4:28.66 |     60037    |    80202   
        5  | 17:49.28 |  2:40.09 |     80203    |    92211   
        6  | 20:29.37 |  4:12.00 |     92212    |   111111   
        7  | 24:41.37 |  3:34.12 |    111112    |   127173   
        8  | 28:15.49 |  5:12.13 |    127174    |   150586   
        9  | 33:27.62 |  3:44.50 |    150587    |   167436   
       10  | 37:12.37 |  3:18.48 |    167437    |   182334   


Track  1

     Filename L:\2017\FLAC\Chic - Original Album Series (2011) [FLAC] (5CD Rhino Records 8122797595)\CD5 - Take It Off (1981)\01 - Stage Fright.wav

     Pre-gap length  0:00:02.00

     Peak level 76.5 %
     Extraction speed 4.3 X
     Track quality 100.0 %
     Test CRC DD703518
     Copy CRC DD703518
     Accurately ripped (confidence 59)  [49A3133F]  (AR v2)
     Copy OK

Track  2

     Filename L:\2017\FLAC\Chic - Original Album Series (2011) [FLAC] (5CD Rhino Records 8122797595)\CD5 - Take It Off (1981)\02 - Burn Hard.wav

     Peak level 76.3 %
     Extraction speed 5.0 X
     Track quality 100.0 %
     Test CRC 6957F174
     Copy CRC 6957F174
     Accurately ripped (confidence 59)  [AAD3CADE]  (AR v2)
     Copy OK

Track  3

     Filename L:\2017\FLAC\Chic - Original Album Series (2011) [FLAC] (5CD Rhino Records 8122797595)\CD5 - Take It Off (1981)\03 - So Fine.wav

     Peak level 74.4 %
     Extraction speed 5.3 X
     Track quality 100.0 %
     Test CRC 9063102F
     Copy CRC 9063102F
     Accurately ripped (confidence 59)  [5F4F688C]  (AR v2)
     Copy OK

Track  4

     Filename L:\2017\FLAC\Chic - Original Album Series (2011) [FLAC] (5CD Rhino Records 8122797595)\CD5 - Take It Off (1981)\04 - Flash Back.wav

     Peak level 65.5 %
     Extraction speed 5.2 X
     Track quality 99.9 %
     Test CRC DE852DC1
     Copy CRC DE852DC1
     Accurately ripped (confidence 59)  [18C1B92B]  (AR v2)
     Copy OK

Track  5

     Filename L:\2017\FLAC\Chic - Original Album Series (2011) [FLAC] (5CD Rhino Records 8122797595)\CD5 - Take It Off (1981)\05 - Telling Lies.wav

     Peak level 64.6 %
     Extraction speed 5.5 X
     Track quality 100.0 %
     Test CRC 67C2F661
     Copy CRC 67C2F661
     Accurately ripped (confidence 59)  [4A0E8721]  (AR v2)
     Copy OK

Track  6

     Filename L:\2017\FLAC\Chic - Original Album Series (2011) [FLAC] (5CD Rhino Records 8122797595)\CD5 - Take It Off (1981)\06 - Your Love Is Cancelled.wav

     Peak level 77.9 %
     Extraction speed 5.6 X
     Track quality 99.9 %
     Test CRC F811945F
     Copy CRC F811945F
     Accurately ripped (confidence 59)  [8B63682D]  (AR v2)
     Copy OK

Track  7

     Filename L:\2017\FLAC\Chic - Original Album Series (2011) [FLAC] (5CD Rhino Records 8122797595)\CD5 - Take It Off (1981)\07 - Would You Be My Baby.wav

     Peak level 73.8 %
     Extraction speed 6.3 X
     Track quality 100.0 %
     Test CRC 89320754
     Copy CRC 89320754
     Accurately ripped (confidence 59)  [D62513F9]  (AR v2)
     Copy OK

Track  8

     Filename L:\2017\FLAC\Chic - Original Album Series (2011) [FLAC] (5CD Rhino Records 8122797595)\CD5 - Take It Off (1981)\08 - Take It Off.wav

     Peak level 73.0 %
     Extraction speed 7.0 X
     Track quality 100.0 %
     Test CRC 70861929
     Copy CRC 70861929
     Accurately ripped (confidence 58)  [F2A8386B]  (AR v2)
     Copy OK

Track  9

     Filename L:\2017\FLAC\Chic - Original Album Series (2011) [FLAC] (5CD Rhino Records 8122797595)\CD5 - Take It Off (1981)\09 - Just Out of Reach.wav

     Peak level 78.0 %
     Extraction speed 7.0 X
     Track quality 100.0 %
     Test CRC 0C558CF0
     Copy CRC 0C558CF0
     Accurately ripped (confidence 59)  [E03EB77D]  (AR v2)
     Copy OK

Track 10

     Filename L:\2017\FLAC\Chic - Original Album Series (2011) [FLAC] (5CD Rhino Records 8122797595)\CD5 - Take It Off (1981)\10 - Baby Doll.wav

     Peak level 82.2 %
     Extraction speed 5.8 X
     Track quality 100.0 %
     Test CRC A37A9CEA
     Copy CRC A37A9CEA
     Accurately ripped (confidence 58)  [2364BC6A]  (AR v2)
     Copy OK


All tracks accurately ripped

No errors occurred

End of status report

---- CUETools DB Plugin V2.1.6

[CTDB TOCID: FGnDyoivcNLyuW1LpnSNdx6RWWc-] found
Submit result: FGnDyoivcNLyuW1LpnSNdx6RWWc- has been confirmed
Track | CTDB Status
  1   | (81/82) Accurately ripped
  2   | (81/82) Accurately ripped
  3   | (81/82) Accurately ripped
  4   | (81/82) Accurately ripped
  5   | (81/82) Accurately ripped
  6   | (81/82) Accurately ripped
  7   | (81/82) Accurately ripped
  8   | (81/82) Accurately ripped
  9   | (81/82) Accurately ripped
 10   | (82/82) Accurately ripped


==== Log checksum ABEA1E1404295DF05E7788BA46CA900D87321681591982BD6CAE86843E968BEB ====



Create a new paste based on this one


Comments: