[ create a new paste ] login | about

Link: http://codepad.org/CFE3k4nK    [ raw code | fork ]

Plain Text, pasted on Jun 7:
foobar2000 1.3.17 / Dynamic Range Meter 1.1.1
log date: 2018-06-06 13:40:27

--------------------------------------------------------------------------------
Analyzed: Leonard Slatkin, St. Louis Symphony Orchestra / Mussorgsky: Pictures At An Exhibition and other works
--------------------------------------------------------------------------------

DR         Peak         RMS     Duration Track
--------------------------------------------------------------------------------
DR9       -7.03 dB   -27.59 dB      1:27 01-Promenade
DR13      -6.21 dB   -31.91 dB      2:36 02-Gnomus
DR9      -23.15 dB   -39.34 dB      0:51 03-Promenade
DR10     -15.82 dB   -37.03 dB      4:23 04-The Old Castle
DR8      -11.57 dB   -30.57 dB      0:29 05-Promenade
DR10     -14.97 dB   -36.57 dB      1:02 06-The Tuileries: Children Quarreling At Play
DR9       -8.40 dB   -29.62 dB      2:32 07-Bydlo
DR9      -13.73 dB   -34.03 dB      0:43 08-Promenade
DR10     -18.84 dB   -37.83 dB      1:15 09-Ballet Of The Chicks In Their Shells
DR11     -10.24 dB   -32.42 dB      2:15 10-Samuel Goldenberg And Schmuyle
DR11      -8.44 dB   -31.08 dB      1:32 11-Limoges: The Market
DR10      -8.53 dB   -30.32 dB      1:37 12-Catacombae
DR9      -22.93 dB   -39.37 dB      1:52 13-Cum Mortuis In Lingua Mortua
DR11      -5.88 dB   -28.21 dB      3:31 14-The Hut On Fowl's Legs
DR10      -5.05 dB   -24.64 dB      5:10 15-The Great Gate At Kiev
DR12      -4.48 dB   -27.55 dB     11:04 16-Night On Bald Mountain
DR10     -15.09 dB   -36.42 dB      5:32 17-Khovanschina - Introduction
DR10     -13.90 dB   -33.63 dB      5:09 18-Khovanschina - Entr'acte
DR11      -5.18 dB   -28.81 dB      6:15 19-Khovanschina - Dance Of The Persian Slaves
DR12      -6.32 dB   -30.90 dB      7:17 20-Borodin: In The Steppes Of Central Asia
--------------------------------------------------------------------------------

Number of tracks:  20
Official DR value: DR10

Samplerate:        2822400 Hz / PCM Samplerate: 176400 Hz
Channels:          5
Bits per sample:   1
Bitrate:           14112 kbps
Codec:             DST64
================================================================================

--------------------------------------------------------------------------------
Analyzed: Leonard Slatkin, St. Louis Symphony Orchestra / Mussorgsky: Pictures At An Exhibition and other works
--------------------------------------------------------------------------------

DR         Peak         RMS     Duration Track
--------------------------------------------------------------------------------
DR11      -7.03 dB   -24.03 dB      1:27 01-Promenade
DR17      -6.21 dB   -28.48 dB      2:36 02-Gnomus
DR11     -23.15 dB   -36.86 dB      0:51 03-Promenade
DR13     -15.82 dB   -34.09 dB      4:23 04-The Old Castle
DR10     -11.57 dB   -27.15 dB      0:29 05-Promenade
DR13     -14.97 dB   -33.58 dB      1:02 06-The Tuileries: Children Quarreling At Play
DR11      -8.40 dB   -26.18 dB      2:32 07-Bydlo
DR11     -13.73 dB   -30.79 dB      0:43 08-Promenade
DR12     -18.84 dB   -35.06 dB      1:15 09-Ballet Of The Chicks In Their Shells
DR13     -10.24 dB   -29.14 dB      2:15 10-Samuel Goldenberg And Schmuyle
DR15      -8.44 dB   -27.69 dB      1:32 11-Limoges: The Market
DR12      -8.53 dB   -27.10 dB      1:37 12-Catacombae
DR11     -22.93 dB   -37.00 dB      1:52 13-Cum Mortuis In Lingua Mortua
DR14      -5.88 dB   -24.87 dB      3:31 14-The Hut On Fowl's Legs
DR11      -5.05 dB   -21.33 dB      5:10 15-The Great Gate At Kiev
DR14      -4.48 dB   -24.00 dB     11:04 16-Night On Bald Mountain
DR12     -15.09 dB   -33.47 dB      5:32 17-Khovanschina - Introduction
DR12     -13.90 dB   -30.35 dB      5:09 18-Khovanschina - Entr'acte
DR14      -5.18 dB   -25.29 dB      6:15 19-Khovanschina - Dance Of The Persian Slaves
DR15      -6.32 dB   -27.29 dB      7:17 20-Borodin: In The Steppes Of Central Asia
--------------------------------------------------------------------------------

Number of tracks:  20
Official DR value: DR13

Samplerate:        2822400 Hz / PCM Samplerate: 176400 Hz
Channels:          2
Bits per sample:   1
Bitrate:           5645 kbps
Codec:             DST64
================================================================================




Create a new paste based on this one


Comments: