[ create a new paste ] login | about

Link: http://codepad.org/CHBMqtgh    [ raw code | fork ]

Plain Text, pasted on Nov 22:
[CUETools log; Date: 11/22/2018 8:28:56 AM; Version: 2.1.5]
[CTDB TOCID: BWup0W9bfLaZBn3MlG7TrK3s8jQ-] found.
Track | CTDB Status
  1   | (266/266) Accurately ripped
  2   | (266/266) Accurately ripped
  3   | (266/266) Accurately ripped
  4   | (266/266) Accurately ripped
  5   | (266/266) Accurately ripped
  6   | (266/266) Accurately ripped
  7   | (266/266) Accurately ripped
  8   | (266/266) Accurately ripped
  9   | (266/266) Accurately ripped
 10   | (266/266) Accurately ripped
 11   | (265/266) Accurately ripped
 12   | (266/266) Accurately ripped
 13   | (265/266) Accurately ripped
 14   | (266/266) Accurately ripped
 15   | (264/266) Accurately ripped
 16   | (261/266) Accurately ripped
[AccurateRip ID: 001ffd13-017aa671-fb0be710] found.
Track   [  CRC   |   V2   ] Status
 01     [f8c62771|e4b2f2a1] (0+8/8) Accurately ripped
 02     [c65387e9|f5c80eb0] (0+8/8) Accurately ripped
 03     [6338e1e0|f0b9b565] (0+8/8) Accurately ripped
 04     [a66bd861|a7273624] (0+8/8) Accurately ripped
 05     [e346afd2|6b48fe7f] (0+8/8) Accurately ripped
 06     [e6cc5749|59e69fb6] (0+8/8) Accurately ripped
 07     [b2e94d7e|b2358dd1] (0+8/8) Accurately ripped
 08     [3f249a1b|a5174a41] (0+8/8) Accurately ripped
 09     [589261a7|b8fafdab] (0+8/8) Accurately ripped
 10     [b73d4c90|8ce09fb8] (0+8/8) Accurately ripped
 11     [7d4f6ffc|d0b22d5f] (0+7/7) Accurately ripped
 12     [cf3f0e32|ced65294] (0+7/7) Accurately ripped
 13     [adbbdfd9|a00ce8f3] (0+7/7) Accurately ripped
 14     [be49d57a|c9b65bd6] (0+7/7) Accurately ripped
 15     [2b16c440|27ba8f78] (0+7/7) Accurately ripped
 16     [4d0c07e6|1f95bb86] (0+7/7) Accurately ripped

Track Peak [ CRC32  ] [W/O NULL] [  LOG   ]
 --   97.9 [F82EF000] [68B60F06]   CRC32   
 01   93.4 [A4F6BC70] [A72A8CB5]           
 02   63.7 [12054E24] [B30F7076]           
 03   91.2 [AAA78E04] [60EC85D2]           
 04   56.2 [1834A1B6] [1B46C5A0]           
 05   97.5 [CD1A28F6] [569F20D4]           
 06   63.1 [BEC2C586] [B7410C9E]           
 07   97.7 [5EDDE5BD] [E647DC1B]           
 08   90.7 [6EF3D242] [52F7C527]           
 09   97.5 [4677680D] [C85556DC]           
 10   97.7 [F30A89FE] [06688995]           
 11   91.0 [F54FB694] [BDACF39E]           
 12   97.7 [4680DEB8] [0E78F1C0]           
 13   97.7 [FE77E629] [6A7D1EBC]           
 14   97.7 [C4FF1B66] [86091AD7]           
 15   87.9 [5472A581] [886324CF]           
 16   97.9 [34417F20] [B5E10A50]           



Create a new paste based on this one


Comments: