[ create a new paste ] login | about

Link: http://codepad.org/CIHVRoAG    [ raw code | fork ]

Plain Text, pasted on Apr 27:
foobar2000 1.3.17 / Dynamic Range Meter 1.1.1
log date: 2018-04-27 07:30:53

--------------------------------------------------------------------------------
Analyzed: Here's Little Richard + Little Richard / Little Richard
--------------------------------------------------------------------------------

DR         Peak         RMS     Duration Track
--------------------------------------------------------------------------------
DR8       -6.03 dB   -16.37 dB      2:23 01-Tutti Frutti
DR13      -4.50 dB   -18.57 dB      2:41 02-True, Fine Mama
DR9       -6.36 dB   -18.36 dB      2:25 03-Can't Believe You Wanna' Leave
DR11      -4.21 dB   -17.14 dB      2:07 04-Ready Teddy
DR9       -5.63 dB   -17.71 dB      2:03 05-Baby
DR12      -4.18 dB   -18.16 dB      2:42 06-Slippin' and Slidin'
DR11      -4.34 dB   -17.31 dB      2:07 07-Long Tall Sally
DR11      -4.24 dB   -18.40 dB      2:15 08-Miss Ann
DR12      -4.67 dB   -19.05 dB      2:07 09-Oh Why?
DR11      -5.23 dB   -18.24 dB      2:21 10-Rip It Up
DR9       -6.56 dB   -17.65 dB      2:02 11-Jenny Jenny
DR14      -4.28 dB   -20.20 dB      2:25 12-She's Got It
DR10      -5.68 dB   -16.76 dB      2:18 13-Keep A Knockin'
DR10      -6.52 dB   -18.49 dB      2:05 14-By The Light Of The Silvery Moon
DR10      -6.14 dB   -18.80 dB      2:17 15-Send Me Some Lovin'
DR12      -4.34 dB   -17.97 dB      2:18 16-I'll Never let You Go
DR12      -4.24 dB   -18.91 dB      2:13 17-Heeby Jeebies
DR9       -6.58 dB   -18.44 dB      2:19 18-All Around The World
DR11      -4.85 dB   -17.12 dB      2:08 19-Good Golly, Miss Molly
DR8       -5.31 dB   -15.71 dB      2:09 20-Baby Face
DR10      -4.27 dB   -16.17 dB      2:05 21-Hey Hey Hey Hey
DR9       -4.80 dB   -15.67 dB      2:06 22-Ooh! My Soul
DR11      -4.35 dB   -17.08 dB      2:29 23-The Girl Can't Help It
DR10      -4.59 dB   -16.85 dB      2:22 24-Lucille
--------------------------------------------------------------------------------

Number of tracks:  24
Official DR value: DR10

Samplerate:        2822400 Hz / PCM Samplerate: 176400 Hz
Channels:          2
Bits per sample:   1
Bitrate:           5645 kbps
Codec:             DSD64
================================================================================




Create a new paste based on this one


Comments: