[ create a new paste ] login | about

Link: http://codepad.org/CNPv6VkJ    [ raw code | fork ]

Plain Text, pasted on Oct 9:
CD1
:::

Exact Audio Copy V1.3 from 2. September 2016

EAC extraction logfile from 3. October 2020, 8:15

Robert Plant / Gigging Deep: Subterranea [CD One]

Used drive  : ATAPI   iHAS122   C   Adapter: 1  ID: 0

Read mode               : Secure
Utilize accurate stream : Yes
Defeat audio cache      : Yes
Make use of C2 pointers : No

Read offset correction                      : 6
Overread into Lead-In and Lead-Out          : No
Fill up missing offset samples with silence : Yes
Delete leading and trailing silent blocks   : No
Null samples used in CRC calculations       : Yes
Used interface                              : Native Win32 interface for Win NT & 2000

Used output format              : User Defined Encoder
Selected bitrate                : 896 kBit/s
Quality                         : High
Add ID3 tag                     : No
Command line compressor         : C:\Program Files (x86)\Exact Audio Copy\FLAC\flac.exe
Additional command line options : -8 -V -T "ARTIST=%artist%" -T "TITLE=%title%" -T "ALBUM=%albumtitle%" -T "DATE=%year%" -T "TRACKNUMBER=%tracknr%" -T "GENRE=%genre%" -T "PERFORMER=%albuminterpret%" -T "COMPOSER=%composer%" %haslyrics%--tag-from-file=LYRICS="%lyricsfile%"%haslyrics% -T "ALBUMARTIST=%albumartist%" -T "DISCNUMBER=%cdnumber%" -T "TOTALDISCS=%totalcds%" -T "TOTALTRACKS=%numtracks%" -T "COMMENT=%comment%" %source% -o %dest%


TOC of the extracted CD

     Track |   Start  |  Length  | Start sector | End sector 
    ---------------------------------------------------------
        1  |  0:00.00 |  4:16.72 |         0    |    19271   
        2  |  4:16.72 |  4:11.12 |     19272    |    38108   
        3  |  8:28.09 |  4:03.25 |     38109    |    56358   
        4  | 12:31.34 |  5:00.44 |     56359    |    78902   
        5  | 17:32.03 |  6:01.34 |     78903    |   106011   
        6  | 23:33.37 |  7:09.41 |    106012    |   138227   
        7  | 30:43.03 |  4:05.34 |    138228    |   156636   
        8  | 34:48.37 |  5:22.72 |    156637    |   180858   
        9  | 40:11.34 |  4:20.27 |    180859    |   200385   
       10  | 44:31.61 |  3:28.61 |    200386    |   216046   
       11  | 48:00.47 |  5:58.66 |    216047    |   242962   
       12  | 53:59.38 |  4:34.05 |    242963    |   263517   
       13  | 58:33.43 |  4:48.01 |    263518    |   285118   
       14  | 63:21.44 |  4:12.24 |    285119    |   304042   
       15  | 67:33.68 |  3:53.20 |    304043    |   321537   


Range status and errors

Selected range

     Filename C:\Robert Plant - Gigging Deep- Subterranea [CD One].wav

     Peak level 97.7 %
     Extraction speed 3.7 X
     Range quality 100.0 %
     Test CRC B7EAB296
     Copy CRC B7EAB296
     Copy OK

No errors occurred

 
AccurateRip summary
 
Track  1  not present in database
Track  2  not present in database
Track  3  not present in database
Track  4  not present in database
Track  5  not present in database
Track  6  not present in database
Track  7  not present in database
Track  8  not present in database
Track  9  not present in database
Track 10  not present in database
Track 11  not present in database
Track 12  not present in database
Track 13  not present in database
Track 14  not present in database
Track 15  not present in database
 
None of the tracks are present in the AccurateRip database

End of status report

---- CUETools DB Plugin V2.1.6

[CTDB TOCID: OPfVM7NysowlE9IcLoSh_9YPMGM-] found
Submit result: OPfVM7NysowlE9IcLoSh_9YPMGM- has been confirmed
Track | CTDB Status
  1   | (2/2) Accurately ripped
  2   | (2/2) Accurately ripped
  3   | (2/2) Accurately ripped
  4   | (2/2) Accurately ripped
  5   | (2/2) Accurately ripped
  6   | (2/2) Accurately ripped
  7   | (2/2) Accurately ripped
  8   | (2/2) Accurately ripped
  9   | (2/2) Accurately ripped
 10   | (2/2) Accurately ripped
 11   | (2/2) Accurately ripped
 12   | (2/2) Accurately ripped
 13   | (2/2) Accurately ripped
 14   | (2/2) Accurately ripped
 15   | (2/2) Accurately ripped


==== Log checksum 6ED76A4705F52CC06E1736010A1B03FD8CBD9DB566A8A468577FBE86D6AF157B ====


CD2
:::

Exact Audio Copy V1.3 from 2. September 2016

EAC extraction logfile from 2. October 2020, 20:22

Robert Plant / Gigging Deep: Subterranea [CD Two]

Used drive  : ATAPI   iHAS122   C   Adapter: 1  ID: 0

Read mode               : Secure
Utilize accurate stream : Yes
Defeat audio cache      : Yes
Make use of C2 pointers : No

Read offset correction                      : 6
Overread into Lead-In and Lead-Out          : No
Fill up missing offset samples with silence : Yes
Delete leading and trailing silent blocks   : No
Null samples used in CRC calculations       : Yes
Used interface                              : Native Win32 interface for Win NT & 2000

Used output format              : User Defined Encoder
Selected bitrate                : 896 kBit/s
Quality                         : High
Add ID3 tag                     : No
Command line compressor         : C:\Program Files (x86)\Exact Audio Copy\FLAC\flac.exe
Additional command line options : -8 -V -T "ARTIST=%artist%" -T "TITLE=%title%" -T "ALBUM=%albumtitle%" -T "DATE=%year%" -T "TRACKNUMBER=%tracknr%" -T "GENRE=%genre%" -T "PERFORMER=%albuminterpret%" -T "COMPOSER=%composer%" %haslyrics%--tag-from-file=LYRICS="%lyricsfile%"%haslyrics% -T "ALBUMARTIST=%albumartist%" -T "DISCNUMBER=%cdnumber%" -T "TOTALDISCS=%totalcds%" -T "TOTALTRACKS=%numtracks%" -T "COMMENT=%comment%" %source% -o %dest%


TOC of the extracted CD

     Track |   Start  |  Length  | Start sector | End sector 
    ---------------------------------------------------------
        1  |  0:00.00 |  3:49.49 |         0    |    17223   
        2  |  3:49.49 |  4:05.68 |     17224    |    35666   
        3  |  7:55.42 |  5:02.54 |     35667    |    58370   
        4  | 12:58.21 |  5:16.33 |     58371    |    82103   
        5  | 18:14.54 |  5:30.06 |     82104    |   106859   
        6  | 23:44.60 |  6:06.39 |    106860    |   134348   
        7  | 29:51.24 |  5:05.21 |    134349    |   157244   
        8  | 34:56.45 |  4:51.68 |    157245    |   179137   
        9  | 39:48.38 |  4:40.74 |    179138    |   200211   
       10  | 44:29.37 |  5:51.28 |    200212    |   226564   
       11  | 50:20.65 |  2:31.50 |    226565    |   237939   
       12  | 52:52.40 |  5:04.60 |    237940    |   260799   
       13  | 57:57.25 |  3:36.12 |    260800    |   277011   
       14  | 61:33.37 |  5:21.12 |    277012    |   301098   
       15  | 66:54.49 |  4:59.06 |    301099    |   323529   


Range status and errors

Selected range

     Filename C:\Robert Plant - Gigging Deep- Subterranea [CD Two].wav

     Peak level 97.7 %
     Extraction speed 3.7 X
     Range quality 100.0 %
     Test CRC E6712A3B
     Copy CRC E6712A3B
     Copy OK

No errors occurred

 
AccurateRip summary
 
Track  1  not present in database
Track  2  not present in database
Track  3  not present in database
Track  4  not present in database
Track  5  not present in database
Track  6  not present in database
Track  7  not present in database
Track  8  not present in database
Track  9  not present in database
Track 10  not present in database
Track 11  not present in database
Track 12  not present in database
Track 13  not present in database
Track 14  not present in database
Track 15  not present in database
 
None of the tracks are present in the AccurateRip database

End of status report

---- CUETools DB Plugin V2.1.6

[CTDB TOCID: OwfT5f89GHVS_p7WPSEI68bphls-] found
Submit result: OwfT5f89GHVS_p7WPSEI68bphls- has been confirmed
Track | CTDB Status
  1   | (1/1) Accurately ripped
  2   | (1/1) Accurately ripped
  3   | (1/1) Accurately ripped
  4   | (1/1) Accurately ripped
  5   | (1/1) Accurately ripped
  6   | (1/1) Accurately ripped
  7   | (1/1) Accurately ripped
  8   | (1/1) Accurately ripped
  9   | (1/1) Accurately ripped
 10   | (1/1) Accurately ripped
 11   | (1/1) Accurately ripped
 12   | (1/1) Accurately ripped
 13   | (1/1) Accurately ripped
 14   | (1/1) Accurately ripped
 15   | (1/1) Accurately ripped


==== Log checksum 61F568764C1145B70BE3FEDBB3842BF270CCBA66BF6CF160011BBEC97430691A ====



Create a new paste based on this one


Comments: