[ create a new paste ] login | about

Link: http://codepad.org/CQarybWq    [ raw code | fork ]

Plain Text, pasted on Jun 7:
foobar2000 1.3 / Dynamic Range Meter 1.1.1
log date: 2014-10-06 09:50:42

--------------------------------------------------------------------------------
Analyzed: Leonard Slatkin And The Saint Louis Symphony Orchestra / Mussorgsky: Pictures At An Exhibition, Night On Bald Mountain, Khovanshchina - Borodin: In The Steppes Of Central Asia (2004 MFSL Hybrid SACD)
--------------------------------------------------------------------------------

DR         Peak         RMS     Duration Track
--------------------------------------------------------------------------------
DR9       -3.07 dB   -23.27 dB      1:27 01-Promenade
DR13      -1.78 dB   -27.88 dB      2:36 02-Gnomus
DR7      -20.91 dB   -38.08 dB      0:51 03-Promenade
DR10     -12.39 dB   -34.26 dB      4:23 04-The Old Castle
DR8       -7.86 dB   -26.40 dB      0:29 05-Promenade
DR10     -11.16 dB   -33.51 dB      1:02 06-The Tuileries: Children Quarreling At Play
DR9       -4.10 dB   -25.40 dB      2:32 07-Bydlo
DR8       -9.65 dB   -30.28 dB      0:43 08-Promenade
DR10     -14.87 dB   -35.42 dB      1:15 09-Ballet Of The Chicks In Their Shells
DR10      -6.03 dB   -28.46 dB      2:15 10-Samuel Goldenberg And Schmuyle
DR11      -4.06 dB   -26.97 dB      1:32 11-Limoges: The Market
DR10      -4.25 dB   -26.15 dB      1:37 12-Catacombae
DR8      -20.77 dB   -38.27 dB      1:52 13-Cum Mortuis In Lingua Mortua
DR11      -1.73 dB   -23.82 dB      3:31 14-The Hut On Fowl's Legs
DR10      -0.74 dB   -20.28 dB      5:14 15-The Great Gate At Kiev
DR12      -0.01 dB   -23.25 dB     11:09 16-Night On Bald Mountain
DR9      -11.50 dB   -33.40 dB      5:36 17-Khovanschina - Introduction
DR9       -9.92 dB   -29.95 dB      5:12 18-Khovanschina - Entr'acte
DR11      -0.76 dB   -24.61 dB      6:19 19-Khovanschina - Dance Of The Persian Slaves
DR12      -2.01 dB   -26.79 dB      7:17 20-In The Steppes Of Central Asia
--------------------------------------------------------------------------------

Number of tracks:  20
Official DR value: DR10

Samplerate:        88200 Hz
Channels:          6
Bits per sample:   24
Bitrate:           4581 kbps
Codec:             FLAC
================================================================================




Create a new paste based on this one


Comments: