[ create a new paste ] login | about

Link: http://codepad.org/CRyCq1Ji    [ raw code | fork ]

Plain Text, pasted on Aug 13:
foobar2000 1.4.4 / Dynamic Range Meter 1.1.1
log date: 2019-08-13 10:54:50

--------------------------------------------------------------------------------
Analyzed: The Who / Who Are You
--------------------------------------------------------------------------------

DR         Peak         RMS     Duration Track
--------------------------------------------------------------------------------
DR12       0.00 dB   -13.72 dB      4:23 01-New Song
DR12       0.00 dB   -12.96 dB      4:30 02-Had Enough
DR13       0.00 dB   -15.08 dB      3:59 03-905
DR12       0.00 dB   -14.44 dB      4:24 04-Sister Disco
DR12       0.00 dB   -16.41 dB      4:38 05-Music Must Change
DR10       0.00 dB   -11.38 dB      4:25 06-Trick Of The Light
DR12       0.00 dB   -15.68 dB      5:47 07-Guitar And Pen
DR10       0.00 dB   -13.32 dB      4:04 08-Love Is Coming Down
DR11       0.00 dB   -13.67 dB      6:26 09-Who Are You
DR12      -0.03 dB   -15.03 dB      6:05 10-Guitar And Pen (Olympic '78 Mix)
DR12       0.00 dB   -15.29 dB      4:01 11-Love Is Coming Down (Work-In-Progress Mix)
DR12       0.00 dB   -14.38 dB      6:19 12-Who Are You (Lost Verse Mix)
--------------------------------------------------------------------------------

Number of tracks:  12
Official DR value: DR12

Samplerate:        96000 Hz
Channels:          2
Bits per sample:   24
Bitrate:           3257 kbps
Codec:             FLAC
================================================================================




Create a new paste based on this one


Comments: