[ create a new paste ] login | about

Link: http://codepad.org/CSMdufkA    [ raw code | fork ]

Plain Text, pasted on Aug 8:
Exact Audio Copy V0.99 prebeta 4 from 23. January 2008

EAC extraction logfile from 10. July 2008, 1:51

The Wallflowers / The Wallflowers

Used drive  : TSSTcorpDVD+-RW TS-L632H   Adapter: 2  ID: 0

Read mode               : Secure
Utilize accurate stream : Yes
Defeat audio cache      : Yes
Make use of C2 pointers : No

Read offset correction                      : 6
Overread into Lead-In and Lead-Out          : No
Fill up missing offset samples with silence : Yes
Delete leading and trailing silent blocks   : No
Null samples used in CRC calculations       : Yes
Used interface                              : Native Win32 interface for Win NT & 2000
Gap handling                                : Appended to previous track

Used output format              : User Defined Encoder
Selected bitrate                : 128 kBit/s
Quality                         : High
Add ID3 tag                     : No
Command line compressor         : C:\Program Files\FLAC\flac.exe
Additional command line options : -V -8 -T "artist=%a" -T "title=%t" -T "album=%g" -T "date=%y" -T "tracknumber=%n" -T "genre=%m" %s


TOC of the extracted CD

     Track |   Start  |  Length  | Start sector | End sector 
    ---------------------------------------------------------
        1  |  0:00.70 |  3:16.52 |        70    |    14821   
        2  |  3:17.47 |  5:28.08 |     14822    |    39429   
        3  |  8:45.55 |  5:17.65 |     39430    |    63269   
        4  | 14:03.45 |  7:02.27 |     63270    |    94946   
        5  | 21:05.72 |  5:16.35 |     94947    |   118681   
        6  | 26:22.32 |  6:30.53 |    118682    |   147984   
        7  | 32:53.10 |  5:00.15 |    147985    |   170499   
        8  | 37:53.25 |  4:48.72 |    170500    |   192171   
        9  | 42:42.22 |  8:26.20 |    192172    |   230141   
       10  | 51:08.42 |  4:48.70 |    230142    |   251811   
       11  | 55:57.37 |  9:14.05 |    251812    |   293366   
       12  | 65:11.42 |  4:16.15 |    293367    |   312581   


Track  1

     Filename F:\Music Archive\The Wallflowers\The Wallflowers - The Wallflowers (1992) [FLAC]\01 - Shy Of The Moon.wav

     Pre-gap length  0:00:02.93

     Peak level 99.3 %
     Track quality 100.0 %
     Test CRC C68640FE
     Copy CRC C68640FE
     Accurately ripped (confidence 9)  [5544334E]
     Copy OK

Track  2

     Filename F:\Music Archive\The Wallflowers\The Wallflowers - The Wallflowers (1992) [FLAC]\02 - Sugarfoot.wav

     Peak level 99.4 %
     Track quality 99.9 %
     Test CRC 5E35DA44
     Copy CRC 5E35DA44
     Accurately ripped (confidence 9)  [F291CEF0]
     Copy OK

Track  3

     Filename F:\Music Archive\The Wallflowers\The Wallflowers - The Wallflowers (1992) [FLAC]\03 - Sidewalk Annie.wav

     Pre-gap length  0:00:01.13

     Peak level 99.8 %
     Track quality 100.0 %
     Test CRC 9EA8431A
     Copy CRC 9EA8431A
     Accurately ripped (confidence 9)  [760F631A]
     Copy OK

Track  4

     Filename F:\Music Archive\The Wallflowers\The Wallflowers - The Wallflowers (1992) [FLAC]\04 - Hollywood.wav

     Pre-gap length  0:00:01.64

     Peak level 99.6 %
     Track quality 99.9 %
     Test CRC 5AB2695C
     Copy CRC 5AB2695C
     Accurately ripped (confidence 9)  [1F622C9A]
     Copy OK

Track  5

     Filename F:\Music Archive\The Wallflowers\The Wallflowers - The Wallflowers (1992) [FLAC]\05 - Be Your Own Girl.wav

     Pre-gap length  0:00:01.00

     Peak level 99.4 %
     Track quality 99.9 %
     Test CRC 7D307738
     Copy CRC 7D307738
     Accurately ripped (confidence 10)  [BF3B16EA]
     Copy OK

Track  6

     Filename F:\Music Archive\The Wallflowers\The Wallflowers - The Wallflowers (1992) [FLAC]\06 - Another One In The Dark.wav

     Pre-gap length  0:00:00.66

     Peak level 99.7 %
     Track quality 100.0 %
     Test CRC 8411BB60
     Copy CRC 8411BB60
     Accurately ripped (confidence 8)  [DE1A7D9C]
     Copy OK

Track  7

     Filename F:\Music Archive\The Wallflowers\The Wallflowers - The Wallflowers (1992) [FLAC]\07 - Ashes To Ashes.wav

     Pre-gap length  0:00:02.13

     Peak level 98.9 %
     Track quality 99.9 %
     Test CRC BFDA98B3
     Copy CRC BFDA98B3
     Accurately ripped (confidence 9)  [C50C72DA]
     Copy OK

Track  8

     Filename F:\Music Archive\The Wallflowers\The Wallflowers - The Wallflowers (1992) [FLAC]\08 - After The Black Bird Sings.wav

     Pre-gap length  0:00:03.00

     Peak level 99.4 %
     Track quality 100.0 %
     Test CRC A47E2C6C
     Copy CRC A47E2C6C
     Accurately ripped (confidence 9)  [632091BF]
     Copy OK

Track  9

     Filename F:\Music Archive\The Wallflowers\The Wallflowers - The Wallflowers (1992) [FLAC]\09 - Somebody Else's Money.wav

     Pre-gap length  0:00:01.69

     Peak level 99.3 %
     Track quality 100.0 %
     Test CRC 0FC47570
     Copy CRC 0FC47570
     Accurately ripped (confidence 9)  [2C9772E7]
     Copy OK

Track 10

     Filename F:\Music Archive\The Wallflowers\The Wallflowers - The Wallflowers (1992) [FLAC]\10 - Asleep At The Wheel.wav

     Pre-gap length  0:00:00.09

     Peak level 62.3 %
     Track quality 100.0 %
     Test CRC 177A33EE
     Copy CRC 177A33EE
     Accurately ripped (confidence 9)  [1B055581]
     Copy OK

Track 11

     Filename F:\Music Archive\The Wallflowers\The Wallflowers - The Wallflowers (1992) [FLAC]\11 - Honeybee.wav

     Pre-gap length  0:00:02.60

     Peak level 99.5 %
     Track quality 100.0 %
     Test CRC BB54A498
     Copy CRC BB54A498
     Accurately ripped (confidence 9)  [A9852E51]
     Copy OK

Track 12

     Filename F:\Music Archive\The Wallflowers\The Wallflowers - The Wallflowers (1992) [FLAC]\12 - For The Life Of Me.wav

     Pre-gap length  0:00:02.82

     Peak level 99.0 %
     Track quality 100.0 %
     Test CRC EEC426FD
     Copy CRC EEC426FD
     Accurately ripped (confidence 8)  [2AF84AAA]
     Copy OK


All tracks accurately ripped

No errors occurred

End of status report



Create a new paste based on this one


Comments: