[ create a new paste ] login | about

Link: http://codepad.org/CWCmUekP    [ raw code | fork ]

Plain Text, pasted on Nov 20:
Exact Audio Copy V1.3 from 2. September 2016

EAC extraction logfile from 11. November 2017, 15:36

Whitesnake / 1987 CD2 Snakeskin Boots

Used drive  : PLEXTOR BD-R  PX-B950SA   Adapter: 1  ID: 1

Read mode               : Secure
Utilize accurate stream : Yes
Defeat audio cache      : Yes
Make use of C2 pointers : No

Read offset correction                      : 6
Overread into Lead-In and Lead-Out          : No
Fill up missing offset samples with silence : Yes
Delete leading and trailing silent blocks   : No
Null samples used in CRC calculations       : Yes
Used interface                              : Native Win32 interface for Win NT & 2000

Used output format : Internal WAV Routines
Sample format      : 44.100 Hz; 16 Bit; Stereo


TOC of the extracted CD

     Track |   Start  |  Length  | Start sector | End sector 
    ---------------------------------------------------------
        1  |  0:00.00 |  6:56.06 |         0    |    31205   
        2  |  6:56.06 |  4:09.46 |     31206    |    49926   
        3  | 11:05.52 |  7:50.64 |     49927    |    85240   
        4  | 18:56.41 |  5:24.56 |     85241    |   109596   
        5  | 24:21.22 |  7:42.46 |    109597    |   144292   
        6  | 32:03.68 |  4:26.70 |    144293    |   164312   
        7  | 36:30.63 |  4:47.34 |    164313    |   185871   
        8  | 41:18.22 |  2:45.17 |    185872    |   198263   
        9  | 44:03.39 |  6:38.23 |    198264    |   228136   
       10  | 50:41.62 |  7:32.39 |    228137    |   262075   
       11  | 58:14.26 |  8:45.64 |    262076    |   301514   
       12  | 67:00.15 |  5:25.15 |    301515    |   325904   


Range status and errors

Selected range

     Filename C:\Whitesnake\1987 (4CD + DVD Box Set Parlophone Records)\CD2 Snakeskin Boots\Whitesnake - 1987 CD2 Snakeskin Boots.wav

     Peak level 97.6 %
     Extraction speed 3.6 X
     Range quality 100.0 %
     Test CRC 33CA3991
     Copy CRC 33CA3991
     Copy OK

No errors occurred

 
AccurateRip summary
 
Track  1  not present in database
Track  2  not present in database
Track  3  not present in database
Track  4  not present in database
Track  5  not present in database
Track  6  not present in database
Track  7  not present in database
Track  8  not present in database
Track  9  not present in database
Track 10  not present in database
Track 11  not present in database
Track 12  not present in database
 
None of the tracks are present in the AccurateRip database

End of status report

---- CUETools DB Plugin V2.1.6

[CTDB TOCID: E4jG5BA9E0OqS35z5VQvNuFLOXY-] found
Submit result: E4jG5BA9E0OqS35z5VQvNuFLOXY- has been confirmed
Track | CTDB Status
  1   | (25/27) Accurately ripped, or (2/27) differs in 1722 samples @02:46:17-02:46:18
  2   | (27/27) Accurately ripped
  3   | (27/27) Accurately ripped
  4   | (25/27) Accurately ripped, or (2/27) differs in 480 samples @00:27:74,00:28:19-00:28:21,02:37:67-02:37:69
  5   | (27/27) Accurately ripped
  6   | (27/27) Accurately ripped
  7   | (25/27) Accurately ripped, or (2/27) differs in 106 samples @04:11:26-04:11:27
  8   | (27/27) Accurately ripped
  9   | (27/27) Accurately ripped
 10   | (27/27) Accurately ripped
 11   | (25/27) Accurately ripped, or (2/27) differs in 154 samples @00:59:57,07:26:45
 12   | (25/27) Accurately ripped, or (2/27) differs in 88 samples @03:17:03


==== Log checksum 246BD15E657D1CA33685AC77AB9B00E5389AF2B32E93E64654BC7435713AEED7 ====



Create a new paste based on this one


Comments: