[ create a new paste ] login | about

Link: http://codepad.org/CaQWQNea    [ raw code | fork ]

Plain Text, pasted on Apr 13:
1
2
3
4
5
6
7
8
9
10
11
12
13
14
15
16
17
18
19
20
21
22
23
24
25
26
27
28
29
30
31
32
33
34
35
36
37
38
39
40
41
42
43
44
45
46
47
48
49
50
51
52
53
54
55
56
57
58
59
60
61
62
63
64
65
66
67
68
69
70
71
72
73
74
75
76
77
78
79
80
81
82
83
84
85
86
87
88
89
90
91
92
93
94
95
96
97
98
99
100
101
102
103
104
105
106
107
108
109
110
111
112
113
114
115
116
117
118
119
120
121
122
123
124
125
126
127
128
129
130
131
132
133
134
135
136
137
138
139
140
141
142
143
144
145
146
147
148
149
150
151
152
153
154
155
156
157
158
159
160
161
162
163
164
165
166
167
168
169
170
171
172
173
174
175
176
177
178
179
180
181
182
183
184
185
186
187
188
189
190
191
192
193
194
195
196
197
198
199
200
201
202
203
204
205
206
207
208
209
210
211
212
213
214
215
216
217
218
219
220
221
222
223
224
225
226
227
228
229
230
231
232
233
234
235
236
237
238
239
240
241
242
243
244
245
246
247
248
249
250
251
252
253
254
255
256
257
258
259
260
261
262
263
264
265
266
267
268
269
270
271
272
273
274
275
276
277
278
279
280
281
282
283
284
285
286
287
288
289
290
291
292
293
294
295
296
297
298
299
300
301
302
303
304
305
306
307
308
309
310
311
312
313
314
315
316
317
318
319
320
321
322
323
324
325
326
327
328
329
330
331
332
333
334
335
336
337
338
339
340
341
342
343
344
345
346
347
348
349
350
351
352
353
354
355
356
357
358
359
360
361
362
363
364
365
366
367
368
369
370
371
372
373
374
375
376
377
378
379
380
381
382
383
384
385
386
387
388
389
390
391
392
393
394
395
396
397
398
399
400
401
402
403
404
Exact Audio Copy V1.0 beta 2 from 29. April 2011

EAC extraction logfile from 11. September 2011, 13:49

Big Joe Turner / All the Classic Hits 1938-1952, Disc D

Used drive  : PLEXTOR CD-R   PREMIUM   Adapter: 0  ID: 0

Read mode               : Secure
Utilize accurate stream : Yes
Defeat audio cache      : Yes
Make use of C2 pointers : No

Read offset correction                      : 30
Overread into Lead-In and Lead-Out          : Yes
Fill up missing offset samples with silence : Yes
Delete leading and trailing silent blocks   : No
Null samples used in CRC calculations       : Yes
Used interface                              : Installed external ASPI interface
Gap handling                                : Appended to previous track

Used output format              : User Defined Encoder
Selected bitrate                : 256 kBit/s
Quality                         : High
Add ID3 tag                     : No
Command line compressor         : C:\Program Files\Exact Audio Copy\FLAC\FLAC.EXE
Additional command line options : -8 -V -T "ARTIST=%artist%" -T "TITLE=%title%" -T "ALBUM=%albumtitle%" -T "DATE=%year%" -T "TRACKNUMBER=%tracknr%" -T "TOTALTRACKS=%numtracks%" -T "GENRE=%genre%" -T "ALBUMARTIST=%albumartist%" -T "ALBUM ARTIST=%albumartist%


TOC of the extracted CD

     Track |   Start  |  Length  | Start sector | End sector 
    ---------------------------------------------------------
        1  |  0:00.00 |  2:47.60 |         0    |    12584   
        2  |  2:47.60 |  2:32.27 |     12585    |    24011   
        3  |  5:20.12 |  2:43.30 |     24012    |    36266   
        4  |  8:03.42 |  2:36.24 |     36267    |    47990   
        5  | 10:39.66 |  2:32.37 |     47991    |    59427   
        6  | 13:12.28 |  2:16.27 |     59428    |    69654   
        7  | 15:28.55 |  2:35.28 |     69655    |    81307   
        8  | 18:04.08 |  2:46.19 |     81308    |    93776   
        9  | 20:50.27 |  2:38.10 |     93777    |   105636   
       10  | 23:28.37 |  2:39.23 |    105637    |   117584   
       11  | 26:07.60 |  2:41.08 |    117585    |   129667   
       12  | 28:48.68 |  3:00.26 |    129668    |   143193   
       13  | 31:49.19 |  2:45.21 |    143194    |   155589   
       14  | 34:34.40 |  2:36.54 |    155590    |   167343   
       15  | 37:11.19 |  2:38.47 |    167344    |   179240   
       16  | 39:49.66 |  2:32.23 |    179241    |   190663   
       17  | 42:22.14 |  2:40.53 |    190664    |   202716   
       18  | 45:02.67 |  2:31.26 |    202717    |   214067   
       19  | 47:34.18 |  2:33.40 |    214068    |   225582   
       20  | 50:07.58 |  2:45.74 |    225583    |   238031   
       21  | 52:53.57 |  2:33.12 |    238032    |   249518   
       22  | 55:26.69 |  2:40.32 |    249519    |   261550   
       23  | 58:07.26 |  2:47.03 |    261551    |   274078   
       24  | 60:54.29 |  2:36.48 |    274079    |   285826   


Track  1

     Filename I:\Big Joe Turner - All the Classic Hits 1938-1952 (2003) [FLAC] {5 CD set JSP7709}\Disc 4of5\01 - Hollywood Bed.wav

     Pre-gap length  0:00:02.00

     Peak level 94.3 %
     Extraction speed 8.2 X
     Track quality 100.0 %
     Test CRC 89A9A7D1
     Copy CRC 89A9A7D1
     Track not present in AccurateRip database
     Copy OK

Track  2

     Filename I:\Big Joe Turner - All the Classic Hits 1938-1952 (2003) [FLAC] {5 CD set JSP7709}\Disc 4of5\02 - Howlin' Winds.wav

     Pre-gap length  0:00:02.41

     Peak level 94.3 %
     Extraction speed 7.2 X
     Track quality 99.9 %
     Test CRC 095BC37F
     Copy CRC 095BC37F
     Track not present in AccurateRip database
     Copy OK

Track  3

     Filename I:\Big Joe Turner - All the Classic Hits 1938-1952 (2003) [FLAC] {5 CD set JSP7709}\Disc 4of5\03 - Radar Blues.wav

     Pre-gap length  0:00:02.40

     Peak level 94.3 %
     Extraction speed 9.3 X
     Track quality 100.0 %
     Test CRC 9CE1E17C
     Copy CRC 9CE1E17C
     Track not present in AccurateRip database
     Copy OK

Track  4

     Filename I:\Big Joe Turner - All the Classic Hits 1938-1952 (2003) [FLAC] {5 CD set JSP7709}\Disc 4of5\04 - Trouble Blues.wav

     Pre-gap length  0:00:02.41

     Peak level 94.3 %
     Extraction speed 9.8 X
     Track quality 100.0 %
     Test CRC 1319FD3E
     Copy CRC 1319FD3E
     Track not present in AccurateRip database
     Copy OK

Track  5

     Filename I:\Big Joe Turner - All the Classic Hits 1938-1952 (2003) [FLAC] {5 CD set JSP7709}\Disc 4of5\05 - Wine-O-Baby Boogie.wav

     Pre-gap length  0:00:02.40

     Peak level 94.3 %
     Extraction speed 10.2 X
     Track quality 100.0 %
     Test CRC 03EEF009
     Copy CRC 03EEF009
     Track not present in AccurateRip database
     Copy OK

Track  6

     Filename I:\Big Joe Turner - All the Classic Hits 1938-1952 (2003) [FLAC] {5 CD set JSP7709}\Disc 4of5\06 - B & O Blues.wav

     Pre-gap length  0:00:02.40

     Peak level 88.7 %
     Extraction speed 10.6 X
     Track quality 100.0 %
     Test CRC A65AE7ED
     Copy CRC A65AE7ED
     Track not present in AccurateRip database
     Copy OK

Track  7

     Filename I:\Big Joe Turner - All the Classic Hits 1938-1952 (2003) [FLAC] {5 CD set JSP7709}\Disc 4of5\07 - Christmas Date Boogie.wav

     Pre-gap length  0:00:02.41

     Peak level 94.3 %
     Extraction speed 8.6 X
     Track quality 99.9 %
     Test CRC 172AF97E
     Copy CRC 172AF97E
     Track not present in AccurateRip database
     Copy OK

Track  8

     Filename I:\Big Joe Turner - All the Classic Hits 1938-1952 (2003) [FLAC] {5 CD set JSP7709}\Disc 4of5\08 - Tell Me Pretty Baby.wav

     Pre-gap length  0:00:02.40

     Peak level 94.2 %
     Extraction speed 11.4 X
     Track quality 100.0 %
     Test CRC 78AB3137
     Copy CRC 78AB3137
     Track not present in AccurateRip database
     Copy OK

Track  9

     Filename I:\Big Joe Turner - All the Classic Hits 1938-1952 (2003) [FLAC] {5 CD set JSP7709}\Disc 4of5\09 - Old Piney Brown Is Gone.wav

     Pre-gap length  0:00:02.40

     Peak level 94.2 %
     Extraction speed 11.7 X
     Track quality 100.0 %
     Test CRC B4D54F1E
     Copy CRC B4D54F1E
     Track not present in AccurateRip database
     Copy OK

Track 10

     Filename I:\Big Joe Turner - All the Classic Hits 1938-1952 (2003) [FLAC] {5 CD set JSP7709}\Disc 4of5\10 - Baby Won't You Marry Me.wav

     Pre-gap length  0:00:02.41

     Peak level 94.3 %
     Extraction speed 12.1 X
     Track quality 100.0 %
     Test CRC 751D6D8F
     Copy CRC 751D6D8F
     Track not present in AccurateRip database
     Copy OK

Track 11

     Filename I:\Big Joe Turner - All the Classic Hits 1938-1952 (2003) [FLAC] {5 CD set JSP7709}\Disc 4of5\11 - I Love Ya, I Love Ya, I Love Ya.wav

     Pre-gap length  0:00:02.40

     Peak level 94.3 %
     Extraction speed 12.6 X
     Track quality 100.0 %
     Test CRC 265C264E
     Copy CRC 265C264E
     Track not present in AccurateRip database
     Copy OK

Track 12

     Filename I:\Big Joe Turner - All the Classic Hits 1938-1952 (2003) [FLAC] {5 CD set JSP7709}\Disc 4of5\12 - Born To Gamble.wav

     Pre-gap length  0:00:02.40

     Peak level 94.3 %
     Extraction speed 13.0 X
     Track quality 100.0 %
     Test CRC D5A8A8AE
     Copy CRC D5A8A8AE
     Track not present in AccurateRip database
     Copy OK

Track 13

     Filename I:\Big Joe Turner - All the Classic Hits 1938-1952 (2003) [FLAC] {5 CD set JSP7709}\Disc 4of5\13 - Messin' Around.wav

     Pre-gap length  0:00:02.41

     Peak level 94.2 %
     Extraction speed 13.2 X
     Track quality 100.0 %
     Test CRC AF48AE75
     Copy CRC AF48AE75
     Track not present in AccurateRip database
     Copy OK

Track 14

     Filename I:\Big Joe Turner - All the Classic Hits 1938-1952 (2003) [FLAC] {5 CD set JSP7709}\Disc 4of5\14 - Mardi Gras Boogie.wav

     Pre-gap length  0:00:02.41

     Peak level 94.3 %
     Extraction speed 10.2 X
     Track quality 99.9 %
     Test CRC 28EA333D
     Copy CRC 28EA333D
     Track not present in AccurateRip database
     Copy OK

Track 15

     Filename I:\Big Joe Turner - All the Classic Hits 1938-1952 (2003) [FLAC] {5 CD set JSP7709}\Disc 4of5\15 - My Heart Belongs To You.wav

     Pre-gap length  0:00:02.40

     Peak level 94.2 %
     Extraction speed 13.7 X
     Track quality 100.0 %
     Test CRC 7A5B2D0A
     Copy CRC 7A5B2D0A
     Track not present in AccurateRip database
     Copy OK

Track 16

     Filename I:\Big Joe Turner - All the Classic Hits 1938-1952 (2003) [FLAC] {5 CD set JSP7709}\Disc 4of5\16 - So Many Women Blues.wav

     Pre-gap length  0:00:02.41

     Peak level 94.3 %
     Extraction speed 14.0 X
     Track quality 100.0 %
     Test CRC 7E513561
     Copy CRC 7E513561
     Track not present in AccurateRip database
     Copy OK

Track 17

     Filename I:\Big Joe Turner - All the Classic Hits 1938-1952 (2003) [FLAC] {5 CD set JSP7709}\Disc 4of5\17 - I Don't Dig It.wav

     Pre-gap length  0:00:02.40

     Peak level 94.3 %
     Extraction speed 14.1 X
     Track quality 100.0 %
     Test CRC 168A1983
     Copy CRC 168A1983
     Track not present in AccurateRip database
     Copy OK

Track 18

     Filename I:\Big Joe Turner - All the Classic Hits 1938-1952 (2003) [FLAC] {5 CD set JSP7709}\Disc 4of5\18 - Rainy Weather Blues.wav

     Pre-gap length  0:00:02.40

     Peak level 94.2 %
     Extraction speed 14.4 X
     Track quality 100.0 %
     Test CRC CB0AD66A
     Copy CRC CB0AD66A
     Track not present in AccurateRip database
     Copy OK

Track 19

     Filename I:\Big Joe Turner - All the Classic Hits 1938-1952 (2003) [FLAC] {5 CD set JSP7709}\Disc 4of5\19 - Feelin' So Sad.wav

     Pre-gap length  0:00:02.41

     Peak level 94.3 %
     Extraction speed 14.7 X
     Track quality 100.0 %
     Test CRC 70CB2159
     Copy CRC 70CB2159
     Track not present in AccurateRip database
     Copy OK

Track 20

     Filename I:\Big Joe Turner - All the Classic Hits 1938-1952 (2003) [FLAC] {5 CD set JSP7709}\Disc 4of5\20 - Boogie Woogie Baby.wav

     Pre-gap length  0:00:02.40

     Peak level 94.3 %
     Extraction speed 11.3 X
     Track quality 99.9 %
     Test CRC F962C797
     Copy CRC F962C797
     Track not present in AccurateRip database
     Copy OK

Track 21

     Filename I:\Big Joe Turner - All the Classic Hits 1938-1952 (2003) [FLAC] {5 CD set JSP7709}\Disc 4of5\21 - Married Woman Blues.wav

     Pre-gap length  0:00:02.41

     Peak level 94.2 %
     Extraction speed 15.2 X
     Track quality 100.0 %
     Test CRC 30C0525C
     Copy CRC 30C0525C
     Track not present in AccurateRip database
     Copy OK

Track 22

     Filename I:\Big Joe Turner - All the Classic Hits 1938-1952 (2003) [FLAC] {5 CD set JSP7709}\Disc 4of5\22 - Moody Baby.wav

     Pre-gap length  0:00:02.40

     Peak level 94.2 %
     Extraction speed 15.5 X
     Track quality 100.0 %
     Test CRC 6C36E725
     Copy CRC 6C36E725
     Track not present in AccurateRip database
     Copy OK

Track 23

     Filename I:\Big Joe Turner - All the Classic Hits 1938-1952 (2003) [FLAC] {5 CD set JSP7709}\Disc 4of5\23 - Wish I Had A Dollar.wav

     Pre-gap length  0:00:02.41

     Peak level 94.3 %
     Extraction speed 15.8 X
     Track quality 100.0 %
     Test CRC 301CC0D0
     Copy CRC 301CC0D0
     Track not present in AccurateRip database
     Copy OK

Track 24

     Filename I:\Big Joe Turner - All the Classic Hits 1938-1952 (2003) [FLAC] {5 CD set JSP7709}\Disc 4of5\24 - Fuzzy Wuzzy Honey.wav

     Pre-gap length  0:00:02.40

     Peak level 84.0 %
     Extraction speed 17.1 X
     Track quality 100.0 %
     Test CRC 1A9BFC7C
     Copy CRC 1A9BFC7C
     Track not present in AccurateRip database
     Copy OK


None of the tracks are present in the AccurateRip database

No errors occurred

End of status report

==== Log checksum D16F347F40C6A1C00B27F376AA40D6556C4CBC14CDF2C45BD10629AEB29EDD2D ====



Create a new paste based on this one


Comments: