[ create a new paste ] login | about

Link: http://codepad.org/CeAb9QQJ    [ raw code | fork ]

Plain Text, pasted on Dec 11:
Exact Audio Copy V0.99 prebeta 4 from 23. January 2008

Отчёт EAC об извлечении, выполненном 2. августа 2011, 11:46

Various / Rock-A-Billy CD06 - Be Bop Baby

Дисковод: Optiarc DVD RW AD-7173A   Adapter: 0  ID: 1

Режим чтения                 : Достоверность
Использование точного потока : Да
Отключение кэша аудио        : Да
Использование указателей C2  : Нет

Коррекция смещения при чтении                     : 48
Способность читать области Lead-in и Lead-out     : Нет
Заполнение пропущенных сэмплов тишиной            : Да
Удаление блоков с тишиной в начале и конце        : Нет
При вычислениях CRC использовались нулевые сэмплы : Да
Интерфейс                                         : Встроенный Win32-интерфейс для Win NT/2000

Выходной формат : Внутренние WAV-операции
Формат сэмплов  : 44.100 Гц; 16 бит; стерео

TOC извлечённого CD

     Трек |   Старт  | Длительность | Начальный сектор | Конечный сектор
    ---------------------------------------------------------------------
       1  |  0:00.00 |    2:04.05   |           0      |       9304
       2  |  2:04.05 |    2:10.07   |        9305      |      19061
       3  |  4:14.12 |    2:33.51   |       19062      |      30587
       4  |  6:47.63 |    2:10.29   |       30588      |      40366
       5  |  8:58.17 |    1:51.58   |       40367      |      48749
       6  | 10:50.00 |    2:30.71   |       48750      |      60070
       7  | 13:20.71 |    2:32.25   |       60071      |      71495
       8  | 15:53.21 |    1:45.26   |       71496      |      79396
       9  | 17:38.47 |    2:02.44   |       79397      |      88590
      10  | 19:41.16 |    2:33.55   |       88591      |     100120
      11  | 22:14.71 |    1:59.53   |      100121      |     109098
      12  | 24:14.49 |    1:57.34   |      109099      |     117907
      13  | 26:12.08 |    2:03.11   |      117908      |     127143
      14  | 28:15.19 |    2:10.71   |      127144      |     136964
      15  | 30:26.15 |    2:29.41   |      136965      |     148180
      16  | 32:55.56 |    2:11.65   |      148181      |     158070
      17  | 35:07.46 |    2:13.26   |      158071      |     168071
      18  | 37:20.72 |    1:52.22   |      168072      |     176493
      19  | 39:13.19 |    2:16.04   |      176494      |     186697
      20  | 41:29.23 |    2:13.06   |      186698      |     196678

Характеристики диапазона извлечения и сообщения об ошибках

Выбранный диапазон

     Имя файла D:\КОЛЛЕКЦИЯ 12\ROCK-A-BILLY\6\Various - Rock-A-Billy CD06 - Be Bop Baby.wav

     Подозрительная позиция 0:10:45

     Пиковый уровень 100.0 %
     Качество диапазона 99.9 %
     CRC копии 979F5EEA
     Копирование завершено

Были ошибки

AccurateRip: сводка

Трек  1  нет в базе данных
Трек  2  нет в базе данных
Трек  3  нет в базе данных
Трек  4  нет в базе данных
Трек  5  нет в базе данных
Трек  6  нет в базе данных
Трек  7  нет в базе данных
Трек  8  нет в базе данных
Трек  9  нет в базе данных
Трек 10  нет в базе данных
Трек 11  нет в базе данных
Трек 12  нет в базе данных
Трек 13  нет в базе данных
Трек 14  нет в базе данных
Трек 15  нет в базе данных
Трек 16  нет в базе данных
Трек 17  нет в базе данных
Трек 18  нет в базе данных
Трек 19  нет в базе данных
Трек 20  нет в базе данных

Ни одного трека нет в базе AccurateRip

Конец отчёта


Create a new paste based on this one


Comments: