[ create a new paste ] login | about

Link: http://codepad.org/CeERJ8f1    [ raw code | fork ]

Plain Text, pasted on Nov 4:
foobar2000 1.3.17 / Dynamic Range Meter 1.1.1
log date: 2018-11-03 16:19:20

--------------------------------------------------------------------------------
Analyzed: Eagles / Legacy
--------------------------------------------------------------------------------

DR         Peak         RMS     Duration Track
--------------------------------------------------------------------------------
DR8       -1.51 dB   -10.99 dB      6:57 95-Hotel California (Live at Staples Center, Los Angeles, CA, 12/31/1999) [Remastered]
DR7       -1.51 dB   -10.96 dB      5:01 96-Victim Of Love (Live at Staples Center, Los Angeles, CA, 12/31/1999) [Remastered]
DR8       -1.51 dB   -10.51 dB      4:32 97-Peaceful Easy Feeling (Live at Staples Center, Los Angeles, CA, 12/31/1999) [Remastered]
DR9       -1.51 dB   -12.57 dB      3:54 98-Please Come Home For Christmas (Live at Staples Center, Los Angeles, CA, 12/31/1999) [Remastered]
DR8       -1.51 dB   -12.31 dB      5:20 99-OL' 55 (Live at Staples Center, Los Angeles, CA, 12/31/1999) [Remastered]
DR8       -1.51 dB   -11.89 dB      4:02 100-Take It To The Limit (Live at Staples Center, Los Angeles, CA, 12/31/1999) [Remastered]
DR7       -1.51 dB   -10.26 dB      6:13 101-Those Shoes (Live at Staples Center, Los Angeles, CA, 12/31/1999) [Remastered]
DR7       -1.51 dB   -11.09 dB      3:46 102-Funky New Year (Live at Staples Center, Los Angeles, CA, 12/31/1999) [Remastered]
DR7       -1.51 dB   -10.12 dB      5:54 103-Dirty Laundry (Live at Staples Center, Los Angeles, CA, 12/31/1999) [Remastered]
DR7       -1.51 dB    -9.72 dB      3:48 104-Funk 49 (Live at Staples Center, Los Angeles, CA, 12/31/1999) [Remastered]
DR7       -1.51 dB   -10.03 dB      5:21 105-All She Wants To Do Is Dance (Live at Staples Center, Los Angeles, CA, 12/31/1999) [Remastered]
DR7       -1.51 dB    -9.97 dB      5:05 106-The Best Of My Love (Live at Staples Center, Los Angeles, CA, 12/31/1999) [Remastered]
--------------------------------------------------------------------------------

Number of tracks:  12
Official DR value: DR7

Samplerate:        44100 Hz
Channels:          2
Bits per sample:   24
Bitrate:           1652 kbps
Codec:             FLAC
================================================================================




Create a new paste based on this one


Comments: