[ create a new paste ] login | about

Link: http://codepad.org/CfS4EXug    [ raw code | fork ]

Plain Text, pasted on Jul 1:
foobar2000 1.4.4 / Dynamic Range Meter 1.1.1
log date: 2019-07-01 11:23:16

--------------------------------------------------------------------------------
Analyzed: Phil Collins / Other Sides
--------------------------------------------------------------------------------

DR         Peak         RMS     Duration Track
--------------------------------------------------------------------------------
DR9        0.00 dB    -9.78 dB      4:59 01-In the Air Tonight (Demo)
DR10       0.00 dB   -11.75 dB      4:09 02-I Missed Again (Demo)
DR12       0.00 dB   -14.49 dB      5:14 03-If Leaving Me Is Easy (Demo)
DR8        0.00 dB    -9.76 dB      3:59 04-The Man with the Horn
DR9        0.00 dB   -10.71 dB      4:33 05-I Like the Way
DR9        0.00 dB   -10.30 dB      3:45 06-Big Noise (Instrumental)
DR8        0.00 dB   -10.07 dB      4:18 07-Homeless ("Another Day in Paradise" Demo)
DR9        0.00 dB   -11.44 dB      4:45 08-Lionel (Do You Remember Demo)
DR8        0.00 dB   -10.69 dB      4:18 09-Broadway Chorus ("Something Happened on the Way To Heaven" Home Demo)
DR10       0.00 dB   -13.15 dB      5:44 10-Around the World in 80 Presets
DR7        0.00 dB    -8.75 dB      3:36 11-Rad Dudeski
DR8        0.00 dB    -9.70 dB      5:12 12-Don't Call Me Ashley
DR8       -0.10 dB    -9.02 dB      6:59 13-Both Sides of the Demo (Early Demo)
DR8        0.00 dB   -10.25 dB      4:53 14-Everyday (Early Demo)
DR8        0.00 dB   -11.33 dB      6:05 15-For a Friend
DR8       -0.10 dB   -10.58 dB      6:51 16-Stevie's Blues (Theres a Place for Us; Instrumental)
DR8        0.00 dB    -9.39 dB      3:40 17-It's Everywhere
DR4       -1.10 dB    -6.93 dB      3:23 18-Tears of a Clown
--------------------------------------------------------------------------------

Number of tracks:  18
Official DR value: DR8

Samplerate:        44100 Hz
Channels:          2
Bits per sample:   16
Bitrate:           1114 kbps
Codec:             FLAC
================================================================================




Create a new paste based on this one


Comments: