[ create a new paste ] login | about

Link: http://codepad.org/Ch6xPLTW    [ raw code | fork ]

Plain Text, pasted on Aug 28:
foobar2000 1.2.8 / Dynamic Range Meter 1.1.1
log date: 2013-08-08 14:32:13

--------------------------------------------------------------------------------
Analyzed: Michael Jackson Feat. Paul McCartney / Thriller (1999 Remaster) (1)
          Michael Jackson / Thriller (1999 Remaster) (2-9)
--------------------------------------------------------------------------------

DR         Peak         RMS     Duration Track
--------------------------------------------------------------------------------
DR12      -0.34 dB   -18.58 dB      3:42 03-The Girl Is Mine
DR12      -5.04 dB   -18.56 dB      6:03 01-Wanna Be Startin' Somethin'
DR13      -4.08 dB   -19.55 dB      4:20 02-Baby Be Mine
DR13      -3.96 dB   -18.93 dB      5:59 04-Thriller
DR14      -0.26 dB   -17.14 dB      4:18 05-Beat It
DR17      -0.01 dB   -18.61 dB      4:54 06-Billie Jean
DR13      -5.09 dB   -19.94 dB      4:06 07-Human Nature
DR13      -4.18 dB   -18.92 dB      3:58 08-P.Y.T. (Pretty Young Thing)
DR14      -3.13 dB   -21.00 dB      4:58 09-The Lady In My Life
--------------------------------------------------------------------------------

Number of tracks:  9
Official DR value: DR14

Samplerate:        88200 Hz
Channels:          2
Bits per sample:   24
Bitrate:           2591 kbps
Codec:             FLAC
================================================================================




Create a new paste based on this one


Comments: