[ create a new paste ] login | about

Link: http://codepad.org/CmzHZsLH    [ raw code | fork ]

Plain Text, pasted on Dec 20:
foobar2000 1.5 / Dynamic Range Meter 1.1.1
log date: 2019-12-20 23:37:00

--------------------------------------------------------------------------------
Analyzed: Percy Faith  / Chinatown & Love Theme From Romeo And Juliet
--------------------------------------------------------------------------------

DR         Peak         RMS     Duration Track
--------------------------------------------------------------------------------
DR15      -4.66 dB   -21.60 dB      3:10 01-The Entertainer  
DR7       -3.73 dB   -19.76 dB      2:41 02-Im Gonna Go Fishin
DR7       -4.85 dB   -20.25 dB      3:16 03-What ll I Do
DR7       -3.23 dB   -19.59 dB      3:08 04-Deep in the Morning  
DR7       -4.12 dB   -20.75 dB      2:23 05-Chinatown 
DR7       -3.15 dB   -19.87 dB      3:03 06-Fifth Movement  
DR7       -4.36 dB   -21.11 dB      3:43 07-Moody  
DR8       -4.18 dB   -21.37 dB      2:53 08-I Got Rhythm  
DR7       -5.15 dB   -22.99 dB      4:04 09-Midnight at the Oasis  
DR8       -2.96 dB   -20.14 dB      3:06 10-1  2  3  4
DR8       -2.99 dB   -20.03 dB      2:41 11-A Summer Place  
DR9       -3.22 dB   -21.34 dB      2:47 12-Spinning Wheel  
DR9       -3.25 dB   -23.22 dB      3:07 13-The April Fools  
DR8       -2.38 dB   -20.53 dB      2:45 14-Aquarius 
DR9       -3.05 dB   -22.14 dB      2:42 15-Love 
DR8       -3.40 dB   -20.85 dB      2:58 16-Hello Tomorrow 
DR8       -1.51 dB   -23.01 dB      3:11 17-Love Theme from Romeo and Juliet 
DR8       -3.32 dB   -21.52 dB      3:00 18-Good Morning Starshine  
DR8       -5.85 dB   -25.49 dB      2:56 19-One 
DR9       -3.02 dB   -21.85 dB      2:55 20-Without Her  
DR9       -3.75 dB   -23.60 dB      3:21 21-Through the Eyes of a Child  
--------------------------------------------------------------------------------

Number of tracks:  21
Official DR value: DR8

Samplerate:        88200 Hz
Channels:          6
Bits per sample:   24
Bitrate:           5098 kbps
Codec:             FLAC
================================================================================




Create a new paste based on this one


Comments: