[ create a new paste ] login | about

Link: http://codepad.org/CnwVVPIR    [ raw code | fork ]

Plain Text, pasted on Jul 2:
foobar2000 1.2.2 / Dynamic Range Meter 1.1.1
log date: 2013-06-19 11:34:18

--------------------------------------------------------------------------------
Analyzed: The Isley Brothers / 3+3 (2001 Remaster)
--------------------------------------------------------------------------------

DR         Peak         RMS     Duration Track
--------------------------------------------------------------------------------
DR9       -0.01 dB   -10.11 dB      5:34 01-That Lady (Part 1 & Part 2)
DR9       -0.09 dB   -11.16 dB      3:59 02-Don't Let Me Be Lonely Tonight
DR8       -0.20 dB    -9.21 dB      3:23 03-If You Were There
DR9       -0.22 dB   -10.48 dB      3:06 04-You Walk Your Way
DR9       -0.29 dB   -10.65 dB      4:06 05-Listen To The Music
DR10      -0.20 dB   -11.28 dB      3:54 06-What It Comes Down To
DR9       -0.16 dB   -10.50 dB      4:22 07-Sunshine (Go Away Today)
DR9       -0.17 dB   -11.41 dB      6:12 08-Summer Breeze
DR11      -0.23 dB   -13.39 dB      4:18 09-The Highways Of My Life
--------------------------------------------------------------------------------

Number of tracks:  9
Official DR value: DR9

Samplerate:        88200 Hz
Channels:          2
Bits per sample:   24
Bitrate:           2621 kbps
Codec:             FLAC
================================================================================




Create a new paste based on this one


Comments: