[ create a new paste ] login | about

Link: http://codepad.org/CoCOl7SI    [ raw code | fork ]

Plain Text, pasted on Oct 4:
foobar2000 1.4.6 / Dynamic Range Meter 1.1.1
log date: 2019-10-02 14:41:36

--------------------------------------------------------------------------------
Analyzed: The Beatles / Abbey Road (2019 Mix)
--------------------------------------------------------------------------------

DR         Peak         RMS     Duration Track
--------------------------------------------------------------------------------
DR11      -0.19 dB   -13.77 dB      4:20 01-Come Together
DR11      -0.19 dB   -14.21 dB      3:02 02-Something
DR13      -0.19 dB   -17.59 dB      3:28 03-Maxwell's Silver Hammer
DR11      -0.19 dB   -14.45 dB      3:27 04-Oh! Darling
DR11      -0.22 dB   -14.31 dB      2:51 05-Octopus's Garden
DR11      -0.19 dB   -14.19 dB      7:47 06-I Want You (She's So Heavy)
DR12      -0.19 dB   -16.71 dB      3:06 07-Here Comes The Sun
DR11      -1.54 dB   -18.27 dB      2:46 08-Because
DR12      -0.19 dB   -16.90 dB      4:03 09-You Never Give Me Your Money
DR10      -0.19 dB   -14.76 dB      2:26 10-Sun King
DR11      -0.19 dB   -13.35 dB      1:06 11-Mean Mr. Mustard
DR10      -0.19 dB   -13.58 dB      1:13 12-Polythene Pam
DR11      -0.19 dB   -13.85 dB      1:59 13-She Came In Through The Bathroom Window
DR11      -0.19 dB   -16.25 dB      1:31 14-Golden Slumbers
DR10      -0.19 dB   -13.09 dB      1:36 15-Carry That Weight
DR10      -0.19 dB   -14.94 dB      2:22 16-The End
DR8       -1.81 dB   -24.69 dB      0:25 17-Her Majesty
--------------------------------------------------------------------------------

Number of tracks:  17
Official DR value: DR11

Samplerate:        96000 Hz
Channels:          6
Bits per sample:   24
Bitrate:           4070 kbps
Codec:             FLAC
================================================================================




Create a new paste based on this one


Comments: