[ create a new paste ] login | about

Link: http://codepad.org/CoaAmURF    [ raw code | fork ]

Plain Text, pasted on May 29:
foobar2000 1.4.4 / Dynamic Range Meter 1.1.1
log date: 2019-05-28 19:31:27

--------------------------------------------------------------------------------
Analyzed: The Rolling Stones / Aftermath
--------------------------------------------------------------------------------

DR         Peak         RMS     Duration Track
--------------------------------------------------------------------------------
DR13      -0.05 dB   -15.27 dB      2:49 01-Mother's Little Helper
DR14      -0.53 dB   -16.90 dB      2:58 02-Stupid Girl
DR14      -4.60 dB   -23.43 dB      3:10 03-Lady Jane
DR14      -2.18 dB   -19.11 dB      3:44 04-Under My Thumb
DR13      -2.82 dB   -18.39 dB      2:43 05-Doncha Bother Me
DR14      -0.06 dB   -18.25 dB     11:13 06-Goin' Home
DR14      -0.05 dB   -15.78 dB      3:30 07-Flight 505
DR13      -2.84 dB   -19.46 dB      3:10 08-High And Dry
DR13      -1.79 dB   -17.90 dB      5:40 09-Out Of Time
DR13      -1.05 dB   -16.93 dB      2:58 10-It's Not Easy
DR15      -1.72 dB   -21.28 dB      3:13 11-I Am Waiting
DR14      -4.00 dB   -20.97 dB      2:49 12-Take It Or Leave It
DR13      -3.57 dB   -19.28 dB      3:11 13-Think
DR14      -0.75 dB   -16.66 dB      2:31 14-What To Do
--------------------------------------------------------------------------------

Number of tracks:  14
Official DR value: DR14

Samplerate:        96000 Hz
Channels:          2
Bits per sample:   24
Bitrate:           2871 kbps
Codec:             FLAC
================================================================================




Create a new paste based on this one


Comments: