[ create a new paste ] login | about

Link: http://codepad.org/Cr3eRkFX    [ raw code | fork ]

Plain Text, pasted on Aug 21:
[CUETools log; Date: 8/21/2019 1:24:50 PM; Version: 2.1.5]
[CTDB TOCID: PTMwsJIB6Hwkxij5uweBytImUv8-] found.
Track | CTDB Status
  1   | (189/191) Accurately ripped
  2   | (189/191) Accurately ripped
  3   | (189/191) Accurately ripped
  4   | (189/191) Accurately ripped
  5   | (189/191) Accurately ripped
  6   | (189/191) Accurately ripped
  7   | (189/191) Accurately ripped
  8   | (189/191) Accurately ripped
  9   | (189/191) Accurately ripped
 10   | (189/191) Accurately ripped
 11   | (189/191) Accurately ripped
 12   | (190/191) Accurately ripped
 13   | (190/191) Accurately ripped
 14   | (188/191) Accurately ripped
 15   | (190/191) Accurately ripped
 16   | (186/191) Accurately ripped, or (2/191) differs in 2154 samples @01:01:61-01:01:64
[AccurateRip ID: 0026e791-01cbeadb-db0db410] found.
Track   [  CRC   |   V2   ] Status
 01     [52bfec78|c9711cd5] (002+074/148) Accurately ripped
 02     [d872f39e|a83b2e2e] (002+075/149) Accurately ripped
 03     [4dff9fe4|4bedf80e] (002+074/148) Accurately ripped
 04     [4fc02b92|06c07467] (002+074/148) Accurately ripped
 05     [b2f3d326|e90717b6] (002+075/149) Accurately ripped
 06     [bd41f88e|6216af36] (002+075/150) Accurately ripped
 07     [5d05a4db|0173bfa7] (002+075/149) Accurately ripped
 08     [c882dd60|a8e088b8] (002+075/149) Accurately ripped
 09     [8123d0ce|9920fe52] (002+074/150) Accurately ripped
 10     [799218fa|cf14716e] (002+074/148) Accurately ripped
 11     [46e41d2f|265c1cfb] (002+074/148) Accurately ripped
 12     [1805f24e|7d1bf5d3] (002+075/150) Accurately ripped
 13     [0af563ad|8a06ef66] (002+075/150) Accurately ripped
 14     [5ada3d6a|c8ea0aa7] (002+075/150) Accurately ripped
 15     [11eae268|2705d19d] (002+075/150) Accurately ripped
 16     [95b05cbc|7c04f418] (002+076/150) Accurately ripped
Offsetted by 6:
 01     [522f1b9f] (005/148) Accurately ripped
 02     [5bfcca1d] (005/149) Accurately ripped
 03     [5efdaa44] (005/148) Accurately ripped
 04     [eb0bce66] (005/148) Accurately ripped
 05     [17c8ae08] (005/149) Accurately ripped
 06     [35a79527] (005/150) Accurately ripped
 07     [60670332] (005/149) Accurately ripped
 08     [7530712c] (005/149) Accurately ripped
 09     [ff434e3a] (005/150) Accurately ripped
 10     [a20e7d77] (005/148) Accurately ripped
 11     [0c969a32] (005/148) Accurately ripped
 12     [7d838807] (005/150) Accurately ripped
 13     [9ca1d569] (005/150) Accurately ripped
 14     [df1092fe] (005/150) Accurately ripped
 15     [48300c0a] (005/150) Accurately ripped
 16     [bad8d09c] (005/150) Accurately ripped

Track Peak [ CRC32  ] [W/O NULL] [  LOG   ]
 --   98.6 [C7A1A85D] [889D0E3A]           
 01   98.4 [5B1D2635] [64B7F7ED]   CRC32   
 02   98.6 [B3FBD5C5] [E706D8F1]   CRC32   
 03   98.6 [7F3CF6DB] [BD272587]   CRC32   
 04   98.6 [2F5F72E8] [55B7FA76]   CRC32   
 05   98.6 [5E1DB371] [07802A7A]   CRC32   
 06   98.6 [F906DE1C] [138595C6]   CRC32   
 07   87.9 [68A3B6AD] [E04A7EA5]   CRC32   
 08   87.9 [C567DE2E] [FB6DE46A]   CRC32   
 09   98.6 [5C815493] [2B981D54]   CRC32   
 10   87.9 [BF9DC0D8] [B9386E55]   CRC32   
 11   87.9 [A3569659] [ED7F6870]   CRC32   
 12   98.6 [9D0788B6] [43982142]   CRC32   
 13   98.6 [6FFBF5A6] [67FEDDE5]   CRC32   
 14   98.6 [AF0D8D2A] [6FE0B684]   CRC32   
 15   73.0 [1E260972] [34B30E75]   CRC32   
 16   67.8 [2260E3CE] [8C15DF69]   CRC32   



Create a new paste based on this one


Comments: