[ create a new paste ] login | about

Link: http://codepad.org/Cvll5x85    [ raw code | fork ]

Plain Text, pasted on Feb 15:
foobar2000 1.2.2 / Dynamic Range Meter 1.1.1
log date: 2013-06-11 10:24:09

--------------------------------------------------------------------------------
Analyzed: Harry Belafonte / Calypso (2013 AF Hybrid SACD)
--------------------------------------------------------------------------------

DR         Peak         RMS     Duration Track
--------------------------------------------------------------------------------
DR13      -0.01 dB   -17.06 dB      3:07 01-Day O (Banana Boat Song)
DR10      -3.55 dB   -15.33 dB      2:52 02-I Do Adore Her
DR10      -4.68 dB   -16.47 dB      3:06 03-Jamaica Farewell
DR13      -0.34 dB   -14.53 dB      2:36 04-Will His Love Be Like His Rum?
DR10      -4.10 dB   -15.03 dB      3:18 05-Dolly Dawn
DR14      -0.75 dB   -19.43 dB      2:05 06-Star O
DR12      -0.62 dB   -14.43 dB      2:56 07-The Jack-Ass Song
DR13      -0.67 dB   -15.81 dB      2:41 08-Hosanna
DR9       -5.60 dB   -17.36 dB      3:09 09-Come Back Liza
DR10      -5.20 dB   -17.24 dB      2:49 10-Brown Skin Girl
DR14      -0.13 dB   -16.45 dB      3:37 11-Man Smart (Woman Smarter)
--------------------------------------------------------------------------------

Number of tracks:  11
Official DR value: DR12

Samplerate:        88200 Hz
Channels:          2
Bits per sample:   24
Bitrate:           2459 kbps
Codec:             FLAC
================================================================================




Create a new paste based on this one


Comments: