[ create a new paste ] login | about

Link: http://codepad.org/D0dRjnd4    [ raw code | fork ]

Plain Text, pasted on Feb 7:
foobar2000 1.5 / Dynamic Range Meter 1.1.1
log date: 2020-02-07 18:09:02

--------------------------------------------------------------------------------
Analyzed: Queen / The Game 
--------------------------------------------------------------------------------

DR         Peak         RMS     Duration Track
--------------------------------------------------------------------------------
DR10      -2.04 dB   -15.60 dB      3:29 01-Play The Game
DR12      -1.37 dB   -16.23 dB      4:18 02-Dragon Attack
DR13      -0.28 dB   -16.77 dB      3:34 03-Another One Bites The Dust
DR12      -0.12 dB   -14.04 dB      2:48 04-Need Your Loving Tonight
DR12      -2.22 dB   -16.71 dB      2:42 05-Crazy Little Thing Called Love
DR11      -0.70 dB   -14.90 dB      4:31 06-Rock It (Prime Jive)
DR14      -0.05 dB   -18.45 dB      3:52 07-Don't Try Suicide
DR11      -1.45 dB   -16.21 dB      3:33 08-Sail Away Sweet Sister
DR11      -2.20 dB   -14.80 dB      2:51 09-Coming Soon
DR13      -0.35 dB   -17.69 dB      3:46 10-Save Me
--------------------------------------------------------------------------------

Number of tracks:  10
Official DR value: DR12

Samplerate:        44100 Hz
Channels:          2
Bits per sample:   16
Bitrate:           785 kbps
Codec:             FLAC
================================================================================




Create a new paste based on this one


Comments: