[ create a new paste ] login | about

Link: http://codepad.org/D5asalVX    [ raw code | fork ]

Plain Text, pasted on Dec 3:
foobar2000 1.3.17 / Dynamic Range Meter 1.1.1
log date: 2018-12-03 09:58:16

--------------------------------------------------------------------------------
Analyzed: Neil Young / Songs for Judy - Live (Remastered)
--------------------------------------------------------------------------------

DR         Peak         RMS     Duration Track
--------------------------------------------------------------------------------
DR18      -0.51 dB   -23.29 dB      3:25 01-Songs for Judy (Intro)
DR13      -0.26 dB   -17.64 dB      3:15 02-Too Far Gone
DR12      -0.05 dB   -14.64 dB      2:29 03-No One Seems to Know
DR13      -0.30 dB   -16.35 dB      2:54 04-Heart of Gold
DR13      -0.20 dB   -15.99 dB      2:45 05-White Line
DR12      -0.90 dB   -16.58 dB      2:21 06-Love Is a Rose
DR13      -0.53 dB   -18.21 dB      4:16 07-After the Gold Rush
DR14       0.00 dB   -17.77 dB      3:04 08-Human Highway
DR13      -0.41 dB   -18.36 dB      3:34 09-Tell Me Why
DR13      -0.07 dB   -15.81 dB      3:07 10-Mr. Soul
DR11      -0.95 dB   -14.23 dB      2:30 11-Mellow My Mind
DR11      -1.06 dB   -14.26 dB      3:27 12-Give Me Strength
DR10       0.00 dB   -14.65 dB      4:54 13-A Man Needs a Maid
DR12      -1.58 dB   -16.76 dB      2:22 14-Roll Another Number
DR11      -0.02 dB   -13.27 dB      3:17 15-Journey Through the Past
DR12      -1.35 dB   -16.76 dB      2:43 16-Harvest
DR11      -1.52 dB   -15.88 dB      3:31 17-Campaigner
DR13      -0.44 dB   -17.16 dB      5:18 18-Old Laughing Lady
DR12      -1.97 dB   -16.49 dB      3:53 19-The Losing End
DR12      -1.88 dB   -18.72 dB      3:54 20-Here We Are In the Years
DR12      -1.77 dB   -16.66 dB      2:28 21-The Needle and the Damage Done
DR12      -1.06 dB   -17.10 dB      3:49 22-Pocahontas
DR14      -0.46 dB   -18.37 dB      6:08 23-Sugar Mountain
--------------------------------------------------------------------------------

Number of tracks:  23
Official DR value: DR13

Samplerate:        44100 Hz
Channels:          2
Bits per sample:   16
Bitrate:           758 kbps
Codec:             FLAC
================================================================================




Create a new paste based on this one


Comments: