[ create a new paste ] login | about

Link: http://codepad.org/D7aYmkyN    [ raw code | fork ]

Plain Text, pasted on Aug 16:
foobar2000 1.3.17 / Dynamic Range Meter 1.1.1
log date: 2018-08-16 10:05:51

--------------------------------------------------------------------------------
Analyzed: THIN LIZZY / Black Rose A Rock Legend
--------------------------------------------------------------------------------

DR         Peak         RMS     Duration Track
--------------------------------------------------------------------------------
DR10      -5.17 dB   -17.04 dB      3:52 01-DO ANYTHING YOU WANT TO
DR10      -4.53 dB   -16.98 dB      4:00 02-TOUGHEST STREET IN TOWN
DR12      -4.46 dB   -18.12 dB      4:04 03-S & M
DR10      -5.52 dB   -16.97 dB      3:30 04-WAITING FOR AN ALIBI
DR12      -4.77 dB   -18.79 dB      3:33 05-SARAH
DR12      -4.45 dB   -18.85 dB      4:24 06-GOT TO GIVE IT UP
DR11      -4.59 dB   -16.93 dB      3:37 07-GET OUT OF HERE
DR10      -4.91 dB   -16.55 dB      4:41 08-WITH LOVE
DR11      -4.98 dB   -17.47 dB      7:05 09-ROISIN DUBH(BLACK ROSE): A ROCK LEGEND: SHENANDOAH - WILL YOU LASSY GO - DANNY BOY - THE MASON'S APRON 
--------------------------------------------------------------------------------

Number of tracks:  9
Official DR value: DR11

Samplerate:        2822400 Hz / PCM Samplerate: 176400 Hz
Channels:          2
Bits per sample:   1
Bitrate:           5645 kbps
Codec:             DSD64
================================================================================




Create a new paste based on this one


Comments: