[ create a new paste ] login | about

Link: http://codepad.org/D9cy5OF6    [ raw code | fork ]

Plain Text, pasted on Aug 7:
foobar2000 1.3.17 / Dynamic Range Meter 1.1.1
log date: 2018-08-06 13:22:15

--------------------------------------------------------------------------------
Analyzed: Rod Stewart / Body Wishes
--------------------------------------------------------------------------------

DR         Peak         RMS     Duration Track
--------------------------------------------------------------------------------
DR12      -0.47 dB   -13.65 dB      4:01 01-Dancin' Alone
DR13      -0.85 dB   -15.19 dB      4:43 02-Baby Jane
DR12      -1.00 dB   -15.09 dB      3:36 03-Move Me
DR14      -0.46 dB   -16.32 dB      4:41 04-Body Wishes
DR14      -1.89 dB   -17.93 dB      4:00 05-Sweet Surrender
DR13      -0.87 dB   -15.11 dB      4:19 06-What Am I Gonna Do (I'm So In Love With You)
DR14      -0.09 dB   -15.64 dB      4:09 07-Ghetto Blaster
DR13      -1.50 dB   -16.28 dB      3:36 08-Ready Now
DR13      -0.63 dB   -16.98 dB      4:10 09-Strangers Again
DR13      -2.85 dB   -18.23 dB      4:08 10-Satisfied
--------------------------------------------------------------------------------

Number of tracks:  10
Official DR value: DR13

Samplerate:        192000 Hz
Channels:          2
Bits per sample:   24
Bitrate:           5226 kbps
Codec:             FLAC
================================================================================




Create a new paste based on this one


Comments: