[ create a new paste ] login | about

Link: http://codepad.org/DHzcaP1U    [ raw code | fork ]

Plain Text, pasted on Jul 14:
[CUETools log; Date: 7/14/2018 10:11:43 AM; Version: 2.1.5]
[CTDB TOCID: 5UrWC7rcBVJCHO8ZHkmvp1OsApk-] found.
Track | CTDB Status
  1   | (11/11) Accurately ripped
  2   | (11/11) Accurately ripped
  3   | (11/11) Accurately ripped
  4   | (11/11) Accurately ripped
  5   | (11/11) Accurately ripped
  6   | (11/11) Accurately ripped
  7   | (11/11) Accurately ripped
  8   | (11/11) Accurately ripped
  9   | (11/11) Accurately ripped
 10   | (11/11) Accurately ripped
 11   | (11/11) Accurately ripped
 12   | (11/11) Accurately ripped
 13   | (11/11) Accurately ripped
 14   | (11/11) Accurately ripped
 15   | (11/11) Accurately ripped
 16   | (11/11) Accurately ripped
 17   | (11/11) Accurately ripped
 18   | (11/11) Accurately ripped
 19   | (11/11) Accurately ripped
[AccurateRip ID: 00317607-02c4beb7-1311d113] found.
Track   [  CRC   |   V2   ] Status
 01     [55747e75|6dcbf216] (00+11/11) Accurately ripped
 02     [3c506b9c|40a2b006] (00+11/11) Accurately ripped
 03     [420c2eec|827c86a0] (00+11/11) Accurately ripped
 04     [9ea8db10|d0e26a8a] (00+11/11) Accurately ripped
 05     [d95f3028|454252dd] (00+11/11) Accurately ripped
 06     [25ae0a5d|5ed6330a] (00+11/11) Accurately ripped
 07     [6bb3f7f1|10ffb0cd] (00+11/11) Accurately ripped
 08     [c62fbd1a|76622a5e] (00+11/11) Accurately ripped
 09     [7527219c|03ba970d] (00+11/11) Accurately ripped
 10     [5d8f78c5|17cef28e] (00+11/11) Accurately ripped
 11     [1a8b17a1|ccfceda8] (00+11/11) Accurately ripped
 12     [b30e5919|68706a64] (00+11/11) Accurately ripped
 13     [7e03105f|5e18c852] (00+11/11) Accurately ripped
 14     [f3d865d7|e5cbeb73] (00+11/11) Accurately ripped
 15     [5ad6ac0c|216e07ca] (00+11/11) Accurately ripped
 16     [5af3de1c|2aab7c15] (00+11/11) Accurately ripped
 17     [a0cde701|8b64107b] (00+11/11) Accurately ripped
 18     [db3407a6|dc9a6336] (00+11/11) Accurately ripped
 19     [3982de73|1444548c] (00+11/11) Accurately ripped

Track Peak [ CRC32  ] [W/O NULL] [  LOG   ]
 --   99.4 [6CC3752C] [A56EBD48]   CRC32   
 01   99.4 [CCA7995D] [5D799F86]           
 02   98.5 [12090511] [B04C2838]           
 03   98.9 [A5BAA845] [85F38C00]           
 04   79.7 [FA4A9AC2] [F14147B0]           
 05   95.0 [14509ECF] [3F526813]           
 06   99.0 [CE2D64EA] [8B105AB9]           
 07   98.5 [DB50AB8E] [D62AAF48]           
 08   98.6 [01047BB2] [6BB595D3]           
 09   96.0 [F6EB8D7A] [E021EA8D]           
 10   98.9 [962C0538] [D2683FFE]           
 11   99.4 [7156C26F] [34A8A10F]           
 12   99.4 [17843406] [86CE869E]           
 13   99.4 [F1BBB24F] [AD90F71C]           
 14   99.4 [DC2EE1F4] [A9BB1A8B]           
 15   99.4 [6EAC8C18] [901703B6]           
 16   99.4 [868B2B3D] [92EEA2A0]           
 17   84.5 [441DA2E4] [DB9D75C5]           
 18   99.4 [2CB029DA] [B52C8658]           
 19   99.4 [65685D85] [6E113184]           



Create a new paste based on this one


Comments: