[ create a new paste ] login | about

Link: http://codepad.org/DJLuuoHp    [ raw code | fork ]

Plain Text, pasted on Feb 1:
CD1
---

Exact Audio Copy V1.0 beta 3 from 29. August 2011

Отчёт EAC об извлечении, выполненном 13. октября 2012, 17:26

Eric Clapton And Steve Winwood / Live From Madison Square Garden - CD 1

Дисковод: SONY    CD-RW  CRX230ED   Adapter: 0  ID: 1

Режим чтения                 : Достоверность
Использование точного потока : Да
Отключение кэша аудио        : Да
Использование указателей C2  : Нет

Коррекция смещения при чтении                     : 6
Способность читать области Lead-in и Lead-out     : Нет
Заполнение пропущенных сэмплов тишиной            : Да
Удаление блоков с тишиной в начале и конце        : Нет
При вычислениях CRC использовались нулевые сэмплы : Да
Интерфейс                                         : Встроенный Win32-интерфейс для Win NT/2000

Выходной формат : Внутренние WAV-операции
Формат сэмплов  : 44.100 Гц; 16 бит; стерео


TOC извлечённого CD

     Трек |   Старт  | Длительность | Начальный сектор | Конечный сектор 
    ---------------------------------------------------------------------
       1  |  0:00.13 |    7:47.67   |          13      |      35104      
       2  |  7:48.05 |    4:10.65   |       35105      |      53919      
       3  | 11:58.70 |    5:10.26   |       53920      |      77195      
       4  | 17:09.21 |    3:33.58   |       77196      |      93228      
       5  | 20:43.04 |    4:50.49   |       93229      |     115027      
       6  | 25:33.53 |    5:23.59   |      115028      |     139311      
       7  | 30:57.37 |    4:13.55   |      139312      |     158341      
       8  | 35:11.17 |    5:35.24   |      158342      |     183490      
       9  | 40:46.41 |    8:06.10   |      183491      |     219950      
      10  | 48:52.51 |    6:10.51   |      219951      |     247751      
      11  | 55:03.27 |    6:42.72   |      247752      |     277973      
      12  | 61:46.24 |    4:09.00   |      277974      |     296648      


Характеристики диапазона извлечения и сообщения об ошибках

Выбранный диапазон

     Имя файла E:\Eric Clapton\Eric Clapton And Steve Winwood - Live From Madison Square Garden\Eric Clapton And Steve Winwood - Live From Madison Square Garden - CD 1.wav

     Пиковый уровень 100.0 %
     Скорость извлечения 8.9 X
     Качество диапазона 100.0 %
     CRC теста 6E8FD919
     CRC копии 6E8FD919
     Копирование... OK

Ошибок не произошло

 
AccurateRip: сводка
 
Трек  1  : извлечено точно (доверие 26)  [32A2A248]  (AR v2)
Трек  2  : извлечено точно (доверие 26)  [9C63ED31]  (AR v2)
Трек  3  : извлечено точно (доверие 26)  [716A1994]  (AR v2)
Трек  4  : извлечено точно (доверие 26)  [3F2BC438]  (AR v2)
Трек  5  : извлечено точно (доверие 26)  [B9FBD3DB]  (AR v2)
Трек  6  : извлечено точно (доверие 24)  [1E01FD69]  (AR v2)
Трек  7  : извлечено точно (доверие 24)  [A851483C]  (AR v2)
Трек  8  : извлечено точно (доверие 25)  [38CF7AE3]  (AR v2)
Трек  9  : извлечено точно (доверие 24)  [80E9797E]  (AR v2)
Трек 10  : извлечено точно (доверие 24)  [CC30AF81]  (AR v2)
Трек 11  : извлечено точно (доверие 25)  [5DE2BF64]  (AR v2)
Трек 12  : извлечено точно (доверие 25)  [C451ACBD]  (AR v2)
 
Все треки извлечены точно

Конец отчёта

==== Контрольная сумма отчёта 0033DE9085CF2B89A3E0D36035B2F7C051C944D07AF8A0E61EBD09F2F6BC9CEB ====


CD2
---

Exact Audio Copy V1.0 beta 3 from 29. August 2011

Отчёт EAC об извлечении, выполненном 13. октября 2012, 18:00

Eric Clapton And Steve Winwood / Live From Madison Square Garden - CD 2

Дисковод: SONY    CD-RW  CRX230ED   Adapter: 0  ID: 1

Режим чтения                 : Достоверность
Использование точного потока : Да
Отключение кэша аудио        : Да
Использование указателей C2  : Нет

Коррекция смещения при чтении                     : 6
Способность читать области Lead-in и Lead-out     : Нет
Заполнение пропущенных сэмплов тишиной            : Да
Удаление блоков с тишиной в начале и конце        : Нет
При вычислениях CRC использовались нулевые сэмплы : Да
Интерфейс                                         : Встроенный Win32-интерфейс для Win NT/2000

Выходной формат : Внутренние WAV-операции
Формат сэмплов  : 44.100 Гц; 16 бит; стерео


TOC извлечённого CD

     Трек |   Старт  | Длительность | Начальный сектор | Конечный сектор 
    ---------------------------------------------------------------------
       1  |  0:00.13 |    4:45.72   |          13      |      21459      
       2  |  4:46.10 |    6:25.70   |       21460      |      50404      
       3  | 11:12.05 |    4:01.08   |       50405      |      68487      
       4  | 15:13.13 |    5:05.42   |       68488      |      91404      
       5  | 20:18.55 |    6:42.35   |       91405      |     121589      
       6  | 27:01.15 |   16:23.36   |      121590      |     195350      
       7  | 43:24.51 |    5:33.71   |      195351      |     220396      
       8  | 48:58.47 |    7:41.25   |      220397      |     254996      
       9  | 56:39.72 |    6:41.72   |      254997      |     285143      


Характеристики диапазона извлечения и сообщения об ошибках

Выбранный диапазон

     Имя файла E:\Eric Clapton\Eric Clapton And Steve Winwood - Live From Madison Square Garden\Eric Clapton And Steve Winwood - Live From Madison Square Garden - CD 2.wav

     Пиковый уровень 100.0 %
     Скорость извлечения 8.8 X
     Качество диапазона 100.0 %
     CRC теста 250D8A12
     CRC копии 250D8A12
     Копирование... OK

Ошибок не произошло

 
AccurateRip: сводка
 
Трек  1  : извлечено точно (доверие 24)  [8F20ACF8]  (AR v2)
Трек  2  : извлечено точно (доверие 24)  [AA901AA6]  (AR v2)
Трек  3  : извлечено точно (доверие 24)  [B869EA1A]  (AR v2)
Трек  4  : извлечено точно (доверие 24)  [45109C31]  (AR v2)
Трек  5  : извлечено точно (доверие 25)  [FB3DECA1]  (AR v2)
Трек  6  : извлечено точно (доверие 24)  [D6282901]  (AR v2)
Трек  7  : извлечено точно (доверие 25)  [312C10A9]  (AR v2)
Трек  8  : извлечено точно (доверие 24)  [18DB663D]  (AR v2)
Трек  9  : извлечено точно (доверие 25)  [25CB75FB]  (AR v2)
 
Все треки извлечены точно

Конец отчёта

==== Контрольная сумма отчёта EF5B5481F30A7F62B4909A228E6B936E00BC61C5DC24021BA125728222C600FF ====



Create a new paste based on this one


Comments: