[ create a new paste ] login | about

Link: http://codepad.org/DJMGm6pR    [ raw code | fork ]

Plain Text, pasted on Aug 6:
foobar2000 1.3.17 / Dynamic Range Meter 1.1.1
log date: 2018-08-06 09:26:26

--------------------------------------------------------------------------------
Analyzed: Dave Wilczewski / Room in the Clouds
--------------------------------------------------------------------------------

DR         Peak         RMS     Duration Track
--------------------------------------------------------------------------------
DR14      -0.50 dB   -17.97 dB      5:53 01-Mio
DR13      -0.81 dB   -17.37 dB      7:26 02-Waynes World
DR11      -1.07 dB   -15.56 dB      5:37 03-April Fools
DR12      -2.05 dB   -16.86 dB      6:16 04-Munen-Musou
DR12      -0.59 dB   -15.67 dB      6:15 05-Elvin Jones
DR11      -0.51 dB   -15.25 dB      5:58 06-Fun for Kofi
DR12      -0.01 dB   -15.48 dB      6:23 07-Lament for B.G.
DR12      -0.40 dB   -15.37 dB      6:35 08-Gofry in Gdansk
DR13      -0.57 dB   -16.60 dB      4:09 09-Blues for Shep
DR11      -0.86 dB   -15.34 dB      8:22 10-Way Back When
DR13      -0.69 dB   -16.95 dB      8:18 11-Speedy
DR10      -0.95 dB   -14.15 dB      1:57 12-For a Smile
--------------------------------------------------------------------------------

Number of tracks:  12
Official DR value: DR12

Samplerate:        88200 Hz
Channels:          2
Bits per sample:   24
Bitrate:           2428 kbps
Codec:             FLAC
================================================================================




Create a new paste based on this one


Comments: