[ create a new paste ] login | about

Link: http://codepad.org/DMefiZFx    [ raw code | fork ]

Plain Text, pasted on Oct 23:
foobar2000 1.6 / Dynamic Range Meter 1.1.1
log date: 2020-10-23 03:00:15

--------------------------------------------------------------------------------
Analyzed: Stan Kenton / Kenton Plays Wagner
--------------------------------------------------------------------------------

DR         Peak         RMS     Duration Track
--------------------------------------------------------------------------------
DR12      -0.05 dB   -14.62 dB      3:17 01-Ride Of The Valkyries From "Die Walkuere"
DR14      -0.05 dB   -19.87 dB      7:45 02-Siegfried's Funeral March From "Goetterdaemmerung"
DR15      -1.12 dB   -23.10 dB      6:12 03-Prelude To Act I From "Lohengrin"
DR12      -0.40 dB   -15.18 dB      3:14 04-Prelude To Act III From "Lohengrin"
DR12      -2.08 dB   -20.18 dB      6:58 05-Prelude To "Tristan Und Isolde"
DR11      -0.05 dB   -18.39 dB      6:20 06-Love-Death From "Tristan Und Isolde"
DR11      -2.61 dB   -20.14 dB      2:36 07-Wedding March From "Lohengrin"
DR10      -0.05 dB   -17.18 dB      3:49 08-Pilgrims' Chorus From "Tannhaeuser"
--------------------------------------------------------------------------------

Number of tracks:  8
Official DR value: DR12

Samplerate:        96000 Hz
Channels:          2
Bits per sample:   24
Bitrate:           2915 kbps
Codec:             FLAC
================================================================================




Create a new paste based on this one


Comments: