[ create a new paste ] login | about

Link: http://codepad.org/DPM0SJXY    [ raw code | fork ]

Plain Text, pasted on Mar 23:
1
2
3
4
5
6
7
8
9
10
11
12
13
14
15
16
17
18
19
20
21
22
23
24
25
26
27
28
29
30
31
32
33
34
35
36
37
38
39
40
41
42
43
44
45
46
47
48
49
50
51
52
53
54
55
56
57
58
59
60
61
62
63
64
65
66
67
68
69
70
71
72
73
74
75
76
77
78
79
80
81
82
83
84
85
86
87
88
89
90
91
92
93
94
95
96
97
98
99
100
101
102
103
104
105
106
107
108
109
110
111
112
113
114
115
116
117
118
119
120
121
122
123
124
125
126
127
128
129
130
131
132
133
134
135
136
137
138
139
140
141
142
143
144
145
146
147
148
149
150
151
152
153
154
155
156
157
158
159
160
161
162
163
164
165
166
167
168
169
170
171
172
173
174
175
176
177
178
179
180
181
182
183
184
185
186
187
188
189
190
191
192
193
194
195
196
197
198
199
200
201
202
203
204
205
206
207
208
209
210
211
212
213
214
215
216
217
218
219
220
221
222
223
224
225
226
227
228
229
230
231
232
233
234
235
236
237
238
239
240
241
242
243
244
245
246
247
248
249
250
251
252
253
254
255
256
257
258
259
260
261
262
263
264
265
266
267
268
269
270
271
272
273
274
275
276
277
278
279
280
281
282
283
284
285
286
287
288
289
290
291
292
293
294
295
296
297
298
299
300
301
302
303
304
305
306
307
308
309
310
311
312
313
314
315
316
317
318
319
320
321
322
323
324
325
326
327
328
329
330
331
332
333
334
335
336
337
338
339
340
341
342
343
344
345
346
347
348
349
350
351
352
353
354
355
356
357
358
359
360
361
362
363
364
365
366
367
368
369
370
371
372
373
374
375
376
377
378
379
380
381
382
383
384
385
386
387
388
389
390
391
392
393
394
395
396
397
398
399
400
401
402
403
404
405
406
407
408
409
410
411
412
413
414
415
416
417
418
419
420
421
422
423
424
425
426
427
428
429
430
431
432
433
434
435
436
437
Exact Audio Copy V1.0 beta 3 from 29. August 2011

EAC extraction logfile from 7. March 2012, 20:03

Harry Manfredini / Friday the 13th (Disc 3)

Used drive  : PLEXTOR DVDR   PX-L890SA   Adapter: 1  ID: 1

Read mode               : Secure
Utilize accurate stream : Yes
Defeat audio cache      : Yes
Make use of C2 pointers : No

Read offset correction                      : 6
Overread into Lead-In and Lead-Out          : No
Fill up missing offset samples with silence : Yes
Delete leading and trailing silent blocks   : No
Null samples used in CRC calculations       : Yes
Used interface                              : Installed external ASPI interface
Gap handling                                : Appended to previous track

Used output format              : User Defined Encoder
Selected bitrate                : 1024 kBit/s
Quality                         : High
Add ID3 tag                     : No
Command line compressor         : C:\Program Files\Exact Audio Copy\Flac\flac.exe
Additional command line options : -V -8 -T "Genre=%genre%" -T "Artist=%artist%" -T "Title=%title%" -T "Album=%albumtitle%" -T "Date=%year%" -T "Tracknumber=%tracknr%" -T "Comment=%comment%" %source%


TOC of the extracted CD

     Track |   Start  |  Length  | Start sector | End sector 
    ---------------------------------------------------------
        1  |  0:00.00 |  4:21.32 |         0    |    19606   
        2  |  4:21.32 |  4:27.49 |     19607    |    39680   
        3  |  8:49.06 |  1:36.27 |     39681    |    46907   
        4  | 10:25.33 |  2:59.16 |     46908    |    60348   
        5  | 13:24.49 |  1:32.12 |     60349    |    67260   
        6  | 14:56.61 |  0:51.33 |     67261    |    71118   
        7  | 15:48.19 |  1:54.47 |     71119    |    79715   
        8  | 17:42.66 |  1:50.26 |     79716    |    87991   
        9  | 19:33.17 |  0:41.42 |     87992    |    91108   
       10  | 20:14.59 |  1:21.29 |     91109    |    97212   
       11  | 21:36.13 |  1:22.48 |     97213    |   103410   
       12  | 22:58.61 |  1:32.30 |    103411    |   110340   
       13  | 24:31.16 |  1:27.29 |    110341    |   116894   
       14  | 25:58.45 |  1:17.02 |    116895    |   122671   
       15  | 27:15.47 |  1:09.23 |    122672    |   127869   
       16  | 28:24.70 |  0:43.63 |    127870    |   131157   
       17  | 29:08.58 |  1:10.08 |    131158    |   136415   
       18  | 30:18.66 |  3:35.31 |    136416    |   152571   
       19  | 33:54.22 |  0:48.74 |    152572    |   156245   
       20  | 34:43.21 |  0:33.31 |    156246    |   158751   
       21  | 35:16.52 |  2:31.55 |    158752    |   170131   
       22  | 37:48.32 |  7:10.43 |    170132    |   202424   
       23  | 44:59.00 |  3:33.70 |    202425    |   218469   
       24  | 48:32.70 |  2:04.38 |    218470    |   227807   
       25  | 50:37.33 |  1:15.43 |    227808    |   233475   
       26  | 51:53.01 |  3:38.64 |    233476    |   249889   


Track  1

     Filename F:\torrent\Friday the 13th_Harry Manfredini_6_CD BOX SET\CD3\01 Part 2 Flashback.wav

     Pre-gap length  0:00:02.00

     Peak level 96.6 %
     Extraction speed 5.3 X
     Track quality 100.0 %
     Test CRC 99E2E1C0
     Copy CRC 99E2E1C0
     Accurately ripped (confidence 2)  [BF61AE80]  (AR v1)
     Copy OK

Track  2

     Filename F:\torrent\Friday the 13th_Harry Manfredini_6_CD BOX SET\CD3\02 Theme from Friday the 13th Part 3.wav

     Pre-gap length  0:00:02.00

     Peak level 95.2 %
     Extraction speed 5.9 X
     Track quality 100.0 %
     Test CRC 4B3AA9AE
     Copy CRC 4B3AA9AE
     Accurately ripped (confidence 2)  [3B8CCB34]  (AR v1)
     Copy OK

Track  3

     Filename F:\torrent\Friday the 13th_Harry Manfredini_6_CD BOX SET\CD3\03 The General Store.wav

     Pre-gap length  0:00:02.00

     Peak level 96.7 %
     Extraction speed 5.1 X
     Track quality 100.0 %
     Test CRC 16832C9B
     Copy CRC 16832C9B
     Accurately ripped (confidence 2)  [5C007CB7]  (AR v1)
     Copy OK

Track  4

     Filename F:\torrent\Friday the 13th_Harry Manfredini_6_CD BOX SET\CD3\04 The Meat Cleaver.wav

     Pre-gap length  0:00:02.00

     Peak level 94.0 %
     Extraction speed 6.2 X
     Track quality 100.0 %
     Test CRC DED1C741
     Copy CRC DED1C741
     Accurately ripped (confidence 2)  [3C70EE1E]  (AR v1)
     Copy OK

Track  5

     Filename F:\torrent\Friday the 13th_Harry Manfredini_6_CD BOX SET\CD3\05 Arriving at the Barn , Fake Axe.wav

     Pre-gap length  0:00:02.00

     Peak level 97.1 %
     Extraction speed 5.5 X
     Track quality 100.0 %
     Test CRC 50E0BDC0
     Copy CRC 50E0BDC0
     Accurately ripped (confidence 2)  [E9169B61]  (AR v1)
     Copy OK

Track  6

     Filename F:\torrent\Friday the 13th_Harry Manfredini_6_CD BOX SET\CD3\06 Let's Go for a Swim.wav

     Pre-gap length  0:00:02.00

     Peak level 42.2 %
     Extraction speed 3.2 X
     Track quality 99.7 %
     Test CRC 27F10E78
     Copy CRC 27F10E78
     Accurately ripped (confidence 2)  [DC06A5AA]  (AR v1)
     Copy OK

Track  7

     Filename F:\torrent\Friday the 13th_Harry Manfredini_6_CD BOX SET\CD3\07 Who's Up There.wav

     Pre-gap length  0:00:02.00

     Peak level 73.7 %
     Extraction speed 6.0 X
     Track quality 100.0 %
     Test CRC DD64D0BE
     Copy CRC DD64D0BE
     Accurately ripped (confidence 2)  [E9763043]  (AR v1)
     Copy OK

Track  8

     Filename F:\torrent\Friday the 13th_Harry Manfredini_6_CD BOX SET\CD3\08 In the Barn.wav

     Pre-gap length  0:00:02.00

     Peak level 84.5 %
     Extraction speed 6.2 X
     Track quality 100.0 %
     Test CRC C3A4A8AD
     Copy CRC C3A4A8AD
     Accurately ripped (confidence 2)  [868B4C13]  (AR v1)
     Copy OK

Track  9

     Filename F:\torrent\Friday the 13th_Harry Manfredini_6_CD BOX SET\CD3\09 The Pipe Wrench.wav

     Pre-gap length  0:00:02.00

     Peak level 98.0 %
     Extraction speed 4.4 X
     Track quality 100.0 %
     Test CRC 2A412846
     Copy CRC 2A412846
     Accurately ripped (confidence 2)  [41770D57]  (AR v1)
     Copy OK

Track 10

     Filename F:\torrent\Friday the 13th_Harry Manfredini_6_CD BOX SET\CD3\10 In the Bedroom.wav

     Pre-gap length  0:00:02.00

     Peak level 18.4 %
     Extraction speed 5.8 X
     Track quality 100.0 %
     Test CRC 83461879
     Copy CRC 83461879
     Accurately ripped (confidence 2)  [501C9494]  (AR v1)
     Copy OK

Track 11

     Filename F:\torrent\Friday the 13th_Harry Manfredini_6_CD BOX SET\CD3\11 Flashback to Meeting Jason.wav

     Pre-gap length  0:00:02.00

     Peak level 97.4 %
     Extraction speed 4.5 X
     Track quality 99.8 %
     Test CRC F71F222D
     Copy CRC F71F222D
     Accurately ripped (confidence 2)  [A2F1B7D7]  (AR v1)
     Copy OK

Track 12

     Filename F:\torrent\Friday the 13th_Harry Manfredini_6_CD BOX SET\CD3\12 Chuck Walks to Outhouse.wav

     Pre-gap length  0:00:02.00

     Peak level 95.9 %
     Extraction speed 6.3 X
     Track quality 100.0 %
     Test CRC 389B470C
     Copy CRC 389B470C
     Accurately ripped (confidence 2)  [7E8DE7DE]  (AR v1)
     Copy OK

Track 13

     Filename F:\torrent\Friday the 13th_Harry Manfredini_6_CD BOX SET\CD3\13 The Lake Dock.wav

     Pre-gap length  0:00:02.00

     Peak level 86.8 %
     Extraction speed 6.2 X
     Track quality 100.0 %
     Test CRC 56185BB2
     Copy CRC 56185BB2
     Accurately ripped (confidence 2)  [55439BDF]  (AR v1)
     Copy OK

Track 14

     Filename F:\torrent\Friday the 13th_Harry Manfredini_6_CD BOX SET\CD3\14 Shelly Goes to the Barn.wav

     Pre-gap length  0:00:02.00

     Peak level 95.2 %
     Extraction speed 4.6 X
     Track quality 99.8 %
     Test CRC 753FB61C
     Copy CRC 753FB61C
     Accurately ripped (confidence 2)  [5B2C6BF5]  (AR v1)
     Copy OK

Track 15

     Filename F:\torrent\Friday the 13th_Harry Manfredini_6_CD BOX SET\CD3\15 Wallet in the Lake.wav

     Pre-gap length  0:00:02.00

     Peak level 82.9 %
     Extraction speed 5.9 X
     Track quality 100.0 %
     Test CRC 576BFF65
     Copy CRC 576BFF65
     Accurately ripped (confidence 2)  [E64355F2]  (AR v1)
     Copy OK

Track 16

     Filename F:\torrent\Friday the 13th_Harry Manfredini_6_CD BOX SET\CD3\16 Debbie Takes a Shower.wav

     Pre-gap length  0:00:02.00

     Peak level 55.3 %
     Extraction speed 3.4 X
     Track quality 99.7 %
     Test CRC E667D2D4
     Copy CRC E667D2D4
     Accurately ripped (confidence 2)  [CBD56D2A]  (AR v1)
     Copy OK

Track 17

     Filename F:\torrent\Friday the 13th_Harry Manfredini_6_CD BOX SET\CD3\17 Walking on Hands.wav

     Pre-gap length  0:00:02.00

     Peak level 74.9 %
     Extraction speed 6.1 X
     Track quality 100.0 %
     Test CRC 2F4C74D5
     Copy CRC 2F4C74D5
     Accurately ripped (confidence 2)  [6BC45F7B]  (AR v1)
     Copy OK

Track 18

     Filename F:\torrent\Friday the 13th_Harry Manfredini_6_CD BOX SET\CD3\18 The Fuse Box.wav

     Pre-gap length  0:00:02.00

     Peak level 97.3 %
     Extraction speed 8.1 X
     Track quality 100.0 %
     Test CRC D7445A4A
     Copy CRC D7445A4A
     Accurately ripped (confidence 2)  [4125D23A]  (AR v1)
     Copy OK

Track 19

     Filename F:\torrent\Friday the 13th_Harry Manfredini_6_CD BOX SET\CD3\19 Chili Bites the Big One.wav

     Pre-gap length  0:00:02.00

     Peak level 32.2 %
     Extraction speed 5.5 X
     Track quality 100.0 %
     Test CRC E80AF6BD
     Copy CRC E80AF6BD
     Accurately ripped (confidence 2)  [E88A8AC5]  (AR v1)
     Copy OK

Track 20

     Filename F:\torrent\Friday the 13th_Harry Manfredini_6_CD BOX SET\CD3\20 Nobody Home.wav

     Pre-gap length  0:00:02.00

     Peak level 17.4 %
     Extraction speed 4.7 X
     Track quality 100.0 %
     Test CRC BE4EC267
     Copy CRC BE4EC267
     Accurately ripped (confidence 2)  [A10DEBA1]  (AR v1)
     Copy OK

Track 21

     Filename F:\torrent\Friday the 13th_Harry Manfredini_6_CD BOX SET\CD3\21 The Eyes Have It.wav

     Pre-gap length  0:00:02.00

     Peak level 83.6 %
     Extraction speed 6.8 X
     Track quality 99.9 %
     Test CRC 51D68D02
     Copy CRC 51D68D02
     Accurately ripped (confidence 2)  [151A8A3C]  (AR v1)
     Copy OK

Track 22

     Filename F:\torrent\Friday the 13th_Harry Manfredini_6_CD BOX SET\CD3\22 Jason Down Stairs to Barn.wav

     Pre-gap length  0:00:02.00

     Peak level 93.9 %
     Extraction speed 8.9 X
     Track quality 99.9 %
     Test CRC 5A832C70
     Copy CRC 5A832C70
     Track not present in AccurateRip database
     Copy OK

Track 23

     Filename F:\torrent\Friday the 13th_Harry Manfredini_6_CD BOX SET\CD3\23 Jason Hung.wav

     Pre-gap length  0:00:02.00

     Peak level 93.8 %
     Extraction speed 9.3 X
     Track quality 100.0 %
     Test CRC 9DEC09A9
     Copy CRC 9DEC09A9
     Track not present in AccurateRip database
     Copy OK

Track 24

     Filename F:\torrent\Friday the 13th_Harry Manfredini_6_CD BOX SET\CD3\24 Jason Grabs Rope.wav

     Pre-gap length  0:00:02.00

     Peak level 89.7 %
     Extraction speed 7.0 X
     Track quality 99.9 %
     Test CRC F4E99E79
     Copy CRC F4E99E79
     Track not present in AccurateRip database
     Copy OK

Track 25

     Filename F:\torrent\Friday the 13th_Harry Manfredini_6_CD BOX SET\CD3\25 Hallucinating.wav

     Pre-gap length  0:00:02.00

     Peak level 86.2 %
     Extraction speed 7.4 X
     Track quality 100.0 %
     Test CRC F2FA7BE0
     Copy CRC F2FA7BE0
     Track not present in AccurateRip database
     Copy OK

Track 26

     Filename F:\torrent\Friday the 13th_Harry Manfredini_6_CD BOX SET\CD3\26 Jason Dead in Barn , End Credit Title.wav

     Pre-gap length  0:00:02.00

     Peak level 80.7 %
     Extraction speed 9.8 X
     Track quality 100.0 %
     Test CRC 7580ECB2
     Copy CRC 7580ECB2
     Track not present in AccurateRip database
     Copy OK


21 трек(и) скопированы точно
 5 трек(и) не содержатся в базе AccurateRip

Some tracks could not be verified as accurate

No errors occurred

End of status report

==== Log checksum 02D0CA6DEB910AB35D5A819EEE5AAC8EF35E81F544ED8FF7508DEFD99ADD781C ====



Create a new paste based on this one


Comments: