[ create a new paste ] login | about

Link: http://codepad.org/DQ3I4nP3    [ raw code | fork ]

Plain Text, pasted on Oct 31:
foobar2000 1.3.17 / Dynamic Range Meter 1.1.1
log date: 2018-10-31 06:54:43

--------------------------------------------------------------------------------
Analyzed: R.E.M. / Automatic For the People (2002 Reissue)
--------------------------------------------------------------------------------

DR         Peak         RMS     Duration Track
--------------------------------------------------------------------------------
DR14       0.00 dB   -18.91 dB      4:32 01-Drive
DR13      -0.74 dB   -17.88 dB      3:50 02-Try Not to Breathe
DR13       0.00 dB   -16.59 dB      4:09 03-The Sidewinder Speaks Tonite
DR13       0.00 dB   -17.89 dB      5:21 04-Everybody Hurts
DR13      -0.65 dB   -21.65 dB      2:16 05-New Orleans Instrumental No. 1
DR10      -2.63 dB   -19.03 dB      4:21 06-Sweetness Follows
DR14       0.00 dB   -18.44 dB      3:18 07-Monty Got a Raw Deal
DR13       0.00 dB   -16.08 dB      4:27 08-Ignoreland
DR12      -0.64 dB   -20.06 dB      3:17 09-Star Me Kitten
DR13       0.00 dB   -17.33 dB      5:14 10-Man on the Moon
DR12      -1.25 dB   -18.89 dB      4:18 11-Nightswimming
DR13       0.00 dB   -17.65 dB      3:51 12-Find the River
--------------------------------------------------------------------------------

Number of tracks:  12
Official DR value: DR13

Samplerate:        48000 Hz
Channels:          6
Bits per sample:   24
Bitrate:           4476 kbps
Codec:             FLAC
================================================================================




Create a new paste based on this one


Comments: