[ create a new paste ] login | about

Link: http://codepad.org/DQ8LyNAf    [ raw code | fork ]

Plain Text, pasted on Mar 10:
[CUETools log; Date: 3/10/2018 8:19:50 AM; Version: 2.1.5]
[CTDB TOCID: kPlmMcoVO_mDPMnNAgKqY.I._oo-] found.
Track | CTDB Status
  1   | (9/9) Accurately ripped
  2   | (9/9) Accurately ripped
  3   | (9/9) Accurately ripped
  4   | (9/9) Accurately ripped
  5   | (9/9) Accurately ripped
  6   | (9/9) Accurately ripped
  7   | (9/9) Accurately ripped
  8   | (9/9) Accurately ripped
  9   | (9/9) Accurately ripped
 10   | (9/9) Accurately ripped
 11   | (9/9) Accurately ripped
 12   | (9/9) Accurately ripped
 13   | (9/9) Accurately ripped
 14   | (9/9) Accurately ripped
 15   | (9/9) Accurately ripped
 16   | (9/9) Accurately ripped
 17   | (9/9) Accurately ripped
 18   | (9/9) Accurately ripped
 19   | (9/9) Accurately ripped
 20   | (9/9) Accurately ripped
[AccurateRip ID: 003067e0-02cf5b09-23110214] found.
Track   [  CRC   |   V2   ] Status
 01     [229f7f4a|26c54eb6] (0+0/6) No match
 02     [636ada19|af516573] (0+0/6) No match
 03     [f6ca44ff|354a8a92] (0+0/6) No match
 04     [cefdb8b7|e8fdd402] (0+0/6) No match
 05     [2d596a83|5f8124ea] (0+0/6) No match
 06     [68400daf|ca739951] (0+0/6) No match
 07     [54c61a47|2e2ca7e6] (0+0/6) No match
 08     [698d6e24|cbcf5afc] (0+0/6) No match
 09     [165d5223|5e803e99] (0+0/6) No match
 10     [764cf279|d909c0b8] (0+0/6) No match
 11     [5e87a32a|59c347ad] (0+0/6) No match
 12     [357f2e5d|2fb93f81] (0+0/6) No match
 13     [2e7b641e|a660a2c2] (0+0/6) No match
 14     [d404d63a|42c2be20] (0+0/6) No match
 15     [96a34436|0c3a65ec] (0+0/6) No match
 16     [b7980d23|b9dd84ea] (0+0/6) No match
 17     [937836c0|c998406f] (0+0/6) No match
 18     [e0612909|c4fc4d3b] (0+0/6) No match
 19     [63fbfc67|7cc946b5] (0+0/6) No match
 20     [af05114c|3a83eccf] (0+0/6) No match
Offsetted by -96:
 01     [f31afd8a] (0/6) No match (V2 was not tested)
 02     [8a7465f9] (0/6) No match (V2 was not tested)
 03     [75c2e03f] (0/6) No match (V2 was not tested)
 04     [c8dc5e97] (0/6) No match (V2 was not tested)
 05     [4cad6e43] (0/6) No match (V2 was not tested)
 06     [cb6bfc4f] (0/6) No match (V2 was not tested)
 07     [cc9b1467] (0/6) No match (V2 was not tested)
 08     [a9ef2884] (0/6) No match (V2 was not tested)
 09     [9dbfdaa3] (0/6) No match (V2 was not tested)
 10     [0d179c19] (0/6) No match (V2 was not tested)
 11     [4b993e6a] (0/6) No match (V2 was not tested)
 12     [db6e8d7d] (0/6) No match (V2 was not tested)
 13     [e28399fe] (0/6) No match (V2 was not tested)
 14     [f2d7127a] (0/6) No match (V2 was not tested)
 15     [9dc833f6] (0/6) No match (V2 was not tested)
 16     [af3ee3e3] (0/6) No match (V2 was not tested)
 17     [c12611a0] (0/6) No match (V2 was not tested)
 18     [0dacc689] (0/6) No match (V2 was not tested)
 19     [10cff927] (0/6) No match (V2 was not tested)
 20     [69b50cec] (0/6) No match (V2 was not tested)

Track Peak [ CRC32  ] [W/O NULL] [  LOG   ]
 --   96.6 [38C89913] [2989C1A6]           
 01   96.6 [4C2BF357] [2C7CF3D7]   CRC32   
 02   96.6 [AE5E5467] [99E6C4A8]   CRC32   
 03   96.6 [74613450] [387DA238]   CRC32   
 04   84.6 [0313E352] [B40EE278]   CRC32   
 05   96.6 [36E4F9DA] [31B83C77]   CRC32   
 06   96.6 [BDBBBF54] [7651AACE]   CRC32   
 07   96.6 [13B2FEC9] [375F5C94]   CRC32   
 08   96.6 [2C4F8058] [ABA84E24]   CRC32   
 09   62.1 [B3CA8523] [4F1AA364]   CRC32   
 10   92.2 [A16F7004] [4EC5D8CB]   CRC32   
 11   96.6 [D3B16715] [F0AF3899]   CRC32   
 12   96.6 [5D9504C5] [52F28A58]   CRC32   
 13   96.6 [CA06F6F4] [F4B0E74D]   CRC32   
 14   96.6 [5D5CC1FC] [BE402585]   CRC32   
 15   96.6 [BDC90990] [94073239]   CRC32   
 16   96.6 [483166B6] [E422D98E]   CRC32   
 17   96.6 [4563EF2B] [C68C6ACF]   CRC32   
 18   96.6 [9FA0152D] [AD87023A]   CRC32   
 19   96.6 [0680CFB2] [FF97D48A]   CRC32   
 20   96.6 [CCFEBA6E] [0DAE341F]   CRC32   



Create a new paste based on this one


Comments: