[ create a new paste ] login | about

Link: http://codepad.org/DXcbIt4b    [ raw code | fork ]

Plain Text, pasted on Apr 1:
CD-QUALITY
::::::::::

foobar2000 1.6.4 / Dynamic Range Meter 1.1.1
log date: 2021-04-01 21:20:21

--------------------------------------------------------------------------------
Analyzed: Elton John / Jewel Box: And This Is Me
--------------------------------------------------------------------------------

DR         Peak         RMS     Duration Track
--------------------------------------------------------------------------------
DR11      -2.43 dB   -16.39 dB      8:29 01-Empty Sky
DR11      -3.29 dB   -16.54 dB      3:04 02-Lady Samantha
DR10      -0.24 dB   -14.07 dB      3:21 03-Border Song
DR12      -2.27 dB   -17.08 dB      6:19 04-My Father's Gun
DR11      -1.76 dB   -17.04 dB      5:09 05-All The Nasties
DR12      -1.30 dB   -15.52 dB      3:34 06-I Think I'm Going To Kill Myself
DR12      -1.07 dB   -15.67 dB      5:33 07-Philadelphia Freedom
DR11      -4.35 dB   -18.21 dB      5:02 08-Song For Guy
DR13      -2.81 dB   -19.16 dB      4:46 09-Sartorial Eloquence
DR11      -3.79 dB   -19.09 dB      3:03 10-Elton's Song
DR11      -0.51 dB   -15.47 dB      4:21 11-Cold As Christmas (In The Middle Of The Year)
DR12      -5.98 dB   -20.83 dB      4:01 12-I Fall Apart
DR12      -2.69 dB   -15.88 dB      4:40 13-Amazes Me
DR11      -5.05 dB   -19.25 dB      3:24 14-The Last Song
DR11      -0.16 dB   -14.10 dB      4:51 15-American Triangle
DR10      -1.37 dB   -11.99 dB      4:14 16-(I'm Gonna) Love Me Again
--------------------------------------------------------------------------------

Number of tracks:  16
Official DR value: DR11

Samplerate:        44100 Hz
Channels:          2
Bits per sample:   16
Bitrate:           982 kbps
Codec:             FLAC
================================================================================



HI-RES 24/96
:::::::::::::

foobar2000 1.6.4 / Dynamic Range Meter 1.1.1
log date: 2021-04-01 21:34:09

--------------------------------------------------------------------------------
Analyzed: Elton John / Jewel Box: And This Is Me
--------------------------------------------------------------------------------

DR         Peak         RMS     Duration Track
--------------------------------------------------------------------------------
DR11      -2.35 dB   -16.39 dB      8:29 01-Empty Sky
DR11      -3.24 dB   -16.53 dB      3:04 02-Lady Samantha
DR10      -0.13 dB   -14.07 dB      3:21 03-Border Song
DR12      -1.55 dB   -17.08 dB      6:19 04-My Father's Gun
DR11      -1.67 dB   -17.03 dB      5:09 05-All The Nasties
DR12      -0.41 dB   -15.52 dB      3:34 06-I Think I'm Going To Kill Myself
DR12      -1.08 dB   -15.67 dB      5:33 07-Philadelphia Freedom
DR11      -4.20 dB   -18.20 dB      5:02 08-Song For Guy
DR14      -2.80 dB   -19.15 dB      4:46 09-Sartorial Eloquence
DR11      -3.75 dB   -19.15 dB      3:03 10-Elton's Song
DR11      -0.41 dB   -15.47 dB      4:21 11-Cold As Christmas (In The Middle Of The Year)
DR12      -5.51 dB   -20.83 dB      4:01 12-I Fall Apart
DR12      -2.29 dB   -15.87 dB      4:40 13-Amazes Me
DR11      -5.02 dB   -19.25 dB      3:24 14-The Last Song
DR11      -0.17 dB   -14.14 dB      4:51 15-American Triangle
DR10      -1.33 dB   -11.99 dB      4:14 16-(I'm Gonna) Love Me Again
--------------------------------------------------------------------------------

Number of tracks:  16
Official DR value: DR11

Samplerate:        96000 Hz
Channels:          2
Bits per sample:   24
Bitrate:           3063 kbps
Codec:             FLAC
================================================================================



HI-RES 24/192
::::::::::::

foobar2000 1.6.4 / Dynamic Range Meter 1.1.1
log date: 2021-04-01 21:21:15

--------------------------------------------------------------------------------
Analyzed: Elton John / Jewel Box: And This Is Me
--------------------------------------------------------------------------------

DR         Peak         RMS     Duration Track
--------------------------------------------------------------------------------
DR11      -2.35 dB   -16.38 dB      8:29 01-Empty Sky
DR11      -3.25 dB   -16.53 dB      3:04 02-Lady Samantha
DR10      -0.13 dB   -14.07 dB      3:21 03-Border Song
DR12      -1.26 dB   -17.07 dB      6:19 04-My Father's Gun
DR11      -1.66 dB   -17.03 dB      5:09 05-All The Nasties
DR12      -0.27 dB   -15.51 dB      3:34 06-I Think I'm Going To Kill Myself
DR12      -1.06 dB   -15.67 dB      5:33 07-Philadelphia Freedom
DR11      -4.20 dB   -18.20 dB      5:02 08-Song For Guy
DR14      -2.80 dB   -19.15 dB      4:46 09-Sartorial Eloquence
DR11      -3.80 dB   -19.15 dB      3:03 10-Elton's Song
DR11      -0.39 dB   -15.47 dB      4:21 11-Cold As Christmas (In The Middle Of The Year)
DR12      -5.45 dB   -20.82 dB      4:01 12-I Fall Apart
DR12      -2.25 dB   -15.87 dB      4:40 13-Amazes Me
DR11      -5.02 dB   -19.25 dB      3:24 14-The Last Song
DR11      -0.16 dB   -14.14 dB      4:51 15-American Triangle
DR10      -1.27 dB   -11.99 dB      4:14 16-(I'm Gonna) Love Me Again
--------------------------------------------------------------------------------

Number of tracks:  16
Official DR value: DR11

Samplerate:        192000 Hz
Channels:          2
Bits per sample:   24
Bitrate:           5620 kbps
Codec:             FLAC
================================================================================




Create a new paste based on this one


Comments: