[ create a new paste ] login | about

Link: http://codepad.org/DYTGWlWZ    [ raw code | fork ]

Plain Text, pasted on Aug 19:
foobar2000 1.3.17 / Dynamic Range Meter 1.1.1
log date: 2018-08-18 22:26:48

--------------------------------------------------------------------------------
Analyzed: Leslie Pintchik / Quartets
--------------------------------------------------------------------------------

DR         Peak         RMS     Duration Track
--------------------------------------------------------------------------------
DR16      -6.12 dB   -30.19 dB      5:29 01-Happy Days Are Here Again
DR17      -5.82 dB   -29.03 dB      6:50 02-Too Close For Comfort
DR14     -12.02 dB   -31.76 dB      5:51 03-A Simpler Time
DR15      -7.63 dB   -29.28 dB      6:20 04-Not So Fast
DR15      -8.57 dB   -29.81 dB      5:47 05-Over Easy
DR15      -8.94 dB   -31.20 dB      7:10 06-Private Moment
DR17      -8.04 dB   -32.08 dB      6:47 07-Fugu
DR14     -11.17 dB   -29.66 dB      5:35 08-Small Pleasures
DR17      -6.67 dB   -31.78 dB      5:42 09-Somewhere/Berimbau
--------------------------------------------------------------------------------

Number of tracks:  9
Official DR value: DR15

Samplerate:        2822400 Hz / PCM Samplerate: 176400 Hz
Channels:          5
Bits per sample:   1
Bitrate:           14112 kbps
Codec:             DST64
================================================================================

--------------------------------------------------------------------------------
Analyzed: Leslie Pintchik / Quartets
--------------------------------------------------------------------------------

DR         Peak         RMS     Duration Track
--------------------------------------------------------------------------------
DR16      -9.06 dB   -28.74 dB      5:29 01-Happy Days Are Here Again
DR15      -7.49 dB   -26.32 dB      6:50 02-Too Close For Comfort
DR15      -9.83 dB   -30.81 dB      5:51 03-A Simpler Time
DR16      -5.57 dB   -27.65 dB      6:18 04-Not So Fast
DR15      -6.59 dB   -26.39 dB      5:47 05-Over Easy
DR15      -6.76 dB   -28.42 dB      7:10 06-Private Moment
DR16      -7.58 dB   -27.88 dB      6:47 07-Fugu
DR14      -8.04 dB   -26.51 dB      5:35 08-Small Pleasures
DR17      -5.73 dB   -29.01 dB      5:42 09-Somewhere/Berimbau
--------------------------------------------------------------------------------

Number of tracks:  9
Official DR value: DR15

Samplerate:        2822400 Hz / PCM Samplerate: 176400 Hz
Channels:          2
Bits per sample:   1
Bitrate:           5645 kbps
Codec:             DST64
================================================================================




Create a new paste based on this one


Comments: